Loading...
Error

Скачать Леди Ева / The Lady Eve (Престон Стерджес) [1941, комедия, DVDRip-AVC] [DVO]+[Sub] торрент без регистрации

 
Статистика раздачи
Размер:  1,28 GB   |    Скачан:  116 раз
Сидов:  1  [  0 KB/s  ]  
 
Автор Сообщение

Marsianka

[] 

Информация о фильме
Название: Леди Ева
Оригинальное название: The Lady Eve
Год выхода: 1941
Жанр: комедия
Режиссер: Престон Стерджес / Preston Sturges
В ролях: Генри Фонда / Henry Fonda, Чарлз Коберн / Charles Coburn, Мелвилл Купер / Melville Cooper, Роберт Григ / Robert Greig, Марта О'Дрисколл / Martha O'Driscoll, Уильям Демарест / William Demarest, Джэнет Бичер / Janet Beecher, Эрик Блор / Eric Blore, Барбара Стэнвик / Barbara Stanwyck, Юджин Поллетт / Eugene Pallette

О фильме:
Классный маленький шедевр Стерджеса. По рассказу "Преданное сердце" Монктона Хоффа.

Чарлз Пайк (Фонда), сын богатого пивовара (Поллетт), скромный, застенчивый юноша, кажущийся немного глуповатым, интересуется только змеями. В научной экспедиции на Амазонку он искал неизвестные науке виды рептилий. Пайк и его телохранитель (Демарест) садятся на пароход, который должен доставить их в Нью-Йорк. Чарлз, юноша молодой, красивый, богатый наследник, привлекает внимание особ женского пола, находящихся на корабле, но сам он никакого интереса к ним не проявляет. На борту находятся отец и дочь, Джин и Хэрри Хэррингтоны (Стэнуик и Коберн), карточные шулеры, и Джералд (Купер), выдающий себя за их дворецкого. Понимая, что из Чарлза получится хороший "лох", Джин входит к нему в доверие. Тот соглашается перекинуться с ее отцом в картишки. Он считает себя хорошим игроком, и ему становится стыдно, когда он выигрывает у этих милых людей 600 долларов. Но это всего лишь приманка, чтобы как следует обчистить жертву. Но тут происходит то, чего никто из них не ожидал, - Джин по-настоящему влюбляется в Чарлза. Это вызывает недовольство и отвращение ее партнеров...



Страна: США
Студия: Paramount Pictures
Продолжительность: 01:33:54
Перевод: Профессиональный (двухголосый закадровый) R5 Film Prestige

Файл
Кодек: h.264
Качество: DVDRip-AVC
Видео: 624x480 (4:3), 23.976 fps, AVC, ~1650 Kbps, 0.230 bits/pixel
Звук:
Английский, 48.0 KHz, AC3, 1 ch, 96.0 Kbps
Русский, 48.0 KHz, AC3, 2 ch, 192 Kbps
Субтитры:
Английские, VobSub
Русские, VobSub

Исходник R5 Film Prestige, в издании использ. трансфер от R1 Criterion Collection.
Общее
Уникальный идентификатор : 231372746283996735772231564590726771481 (0xAE10C5213BA8AD77B9ECBE1507C3F319)
Полное имя : D:FilmsLedi_Eva.1941.DVDRip-AVC.mkv
Формат : Matroska
Версия формата : Version 4 / Version 2
Размер файла : 1,28 Гбайт
Продолжительность : 1 ч. 33 м.
Общий поток : 1945 Кбит/сек
Дата кодирования : UTC 2013-07-15 19:39:21
Программа кодирования : mkvmerge v6.2.0 ('Promised Land') built on Apr 28 2013 12:22:01
Библиотека кодирования : libebml v1.3.0 + libmatroska v1.4.0

Видео
Идентификатор : 1
Формат : AVC
Формат/Информация : Advanced Video Codec
Профиль формата : High@L4.1
Параметр CABAC формата : Да
Параметр ReFrames формата : 16 кадров
Идентификатор кодека : V_MPEG4/ISO/AVC
Продолжительность : 1 ч. 33 м.
Битрейт : 1650 Кбит/сек
Ширина : 624 пикселя
Высота : 480 пикселей
Соотношение сторон : 4:3
Режим частоты кадров : Постоянный
Частота кадров : 23,976 кадра/сек
Цветовое пространство : YUV
Субдискретизация насыщенности : 4:2:0
Битовая глубина : 8 бит
Тип развёртки : Прогрессивная
Бит/(Пиксели*Кадры) : 0.230
Размер потока : 1,06 Гбайт (83%)
Библиотека кодирования : x264 core 133 r2334 a3ac64b
Настройки программы : cabac=1 / ref=16 / deblock=1:0:0 / analyse=0x3:0x133 / me=umh / subme=10 / psy=1 / psy_rd=1.05:0.10 / mixed_ref=1 / me_range=32 / chroma_me=1 / trellis=2 / 8x8dct=1 / cqm=0 / deadzone=21,11 / fast_pskip=0 / chroma_qp_offset=-3 / threads=8 / lookahead_threads=1 / sliced_threads=0 / nr=0 / decimate=0 / interlaced=0 / bluray_compat=0 / constrained_intra=0 / bframes=9 / b_pyramid=2 / b_adapt=2 / b_bias=0 / direct=3 / weightb=1 / open_gop=0 / weightp=2 / keyint=240 / keyint_min=23 / scenecut=40 / intra_refresh=0 / rc_lookahead=60 / rc=2pass / mbtree=0 / bitrate=1650 / ratetol=1.0 / qcomp=0.60 / qpmin=0 / qpmax=60 / qpstep=4 / cplxblur=20.0 / qblur=0.5 / vbv_maxrate=50000 / vbv_bufsize=62500 / nal_hrd=none / ip_ratio=1.40 / pb_ratio=1.30 / aq=1:1.00
Default : Нет
Forced : Нет
Коэффициенты матрицы : BT.601

Аудио #1
Идентификатор : 2
Формат : AC-3
Формат/Информация : Audio Coding 3
Расширение режима : CM (complete main)
Параметр Endianness формата : Big
Идентификатор кодека : A_AC3
Продолжительность : 1 ч. 33 м.
Вид битрейта : Постоянный
Битрейт : 96,0 Кбит/сек
Каналы : 1 канал
Расположение каналов : Front: C
Частота : 48,0 КГц
Битовая глубина : 16 бит
Метод сжатия : С потерями
Размер потока : 64,5 Мбайт (5%)
Язык : English
Default : Нет
Forced : Нет

Аудио #2
Идентификатор : 3
Формат : AC-3
Формат/Информация : Audio Coding 3
Расширение режима : CM (complete main)
Параметр Endianness формата : Big
Идентификатор кодека : A_AC3
Продолжительность : 1 ч. 33 м.
Вид битрейта : Постоянный
Битрейт : 192 Кбит/сек
Каналы : 2 канала
Расположение каналов : Front: L R
Частота : 48,0 КГц
Битовая глубина : 16 бит
Метод сжатия : С потерями
Размер потока : 129 Мбайт (10%)
Язык : Russian
Default : Да
Forced : Нет

Текст #1
Идентификатор : 4
Формат : VobSub
Режим смешивания : zlib
Идентификатор кодека : S_VOBSUB
Идентификатор кодека/Информация : The same subtitle format used on DVDs
Язык : English
Default : Нет
Forced : Нет

Текст #2
Идентификатор : 5
Формат : VobSub
Режим смешивания : zlib
Идентификатор кодека : S_VOBSUB
Идентификатор кодека/Информация : The same subtitle format used on DVDs
Язык : Russian
Default : Нет
Forced : Нет

Меню
00:00:00.000 : en:Chapter 01
00:01:28.901 : en:Chapter 02
00:03:18.602 : en:Chapter 03
00:04:57.369 : en:Chapter 04
00:08:37.502 : en:Chapter 05
00:12:34.669 : en:Chapter 06
00:17:51.802 : en:Chapter 07
00:23:57.336 : en:Chapter 08
00:26:53.603 : en:Chapter 09
00:29:03.037 : en:Chapter 10
00:31:42.838 : en:Chapter 11
00:38:31.405 : en:Chapter 12
00:40:35.672 : en:Chapter 13
00:43:19.339 : en:Chapter 14
00:49:47.273 : en:Chapter 15
00:51:29.507 : en:Chapter 16
00:54:23.208 : en:Chapter 17
00:58:22.508 : en:Chapter 18
01:00:42.541 : en:Chapter 19
01:04:52.308 : en:Chapter 20
01:09:29.209 : en:Chapter 21
01:12:39.342 : en:Chapter 22
01:17:02.143 : en:Chapter 23
01:19:43.477 : en:Chapter 24
01:26:38.345 : en:Chapter 25
01:30:08.012 : en:Chapter 26
frame I:721 Avg QP:15.72 size: 43613
frame P:30455 Avg QP:18.40 size: 17402
frame B:103906 Avg QP:20.50 size: 5779
Релиз от: Temperest



Скачать Леди.Ева.The.Lady.Eve.(Престон.Стерджес).[1941.комедия.DVDRip-AVC].[DVO]+[Sub].torrent без регистрации
Золото ЗОЛОТАЯ РАЗДАЧА! СКАЧАННОЕ НЕ ЗАСЧИТЫВАЕТСЯ! Золото
Дата: Зарегистрирован   [ Тип: внутренний ] Как тут cкачать?
MAGNET ссылка
MAGNET ссылка


Скачать .torrent

13 KB

Статус: проверено DHT
Скачан: торрент - 116 раз, раздача полностью - 6 раз
Размер: 1,28 GB
Оценка:  - (Голосов: 0)
Поблагодарили: 2
Поделиться ссылкой на эту раздачу с друзьями:
В контактеFacebookОдноклассникиTwitterLivejournalМой МирLiveinternet
 

 
Показать сообщения:    


Вы не можете начинать темы
Вы не можете отвечать на сообщения
Вы не можете редактировать свои сообщения
Вы не можете удалять свои сообщения
Вы не можете голосовать в опросах
Вы не можете прикреплять файлы к сообщениям
Вы можете скачивать файлы