Loading...
Error

Скачать Правосудие Декстера / Dexter (сезон 08) (Маркос Сига, Тим Хантер, Кит Гордон) [2013, триллер, драма, криминал, детектив, BDRip-AVC] [MVO (LostFilm)] торрент без регистрации

 
Статистика раздачи
Размер:  9,95 GB   |    Скачан:  212 раз
Сидов:  1  [  0 KB/s  ]  
 
Автор Сообщение

МихаНЕзатор

[] 

Информация о фильме
Название: Декстер / Правосудие Декстера
Оригинальное название: Dexter
Год выхода: 2013
Жанр: Триллер, драма, криминал, детектив
Режиссер: Джон Дал, Роберт Либерман, Ник Гомез

В ролях: Майкл С. Холл, Дженнифер Карпентер, Лорен Велес, Дэвид Зайас, Джеймс Ремар, К.С. Ли, Десмонд Харрингтон, Джули Бенц, Кристина Робинсон, Престон Бэйли, Джеффри Пирсон, Эрик Кинг, Айми Гарсиа, Люк Эндрю Крунтчев, Ивэн Джордж Крунтчев, Дэвид Рэмси, Кит Кэрредин, Джимми Смитс, Колин Хэнкс, Рэй Стивенсон, Джон Литгоу

О фильме: Американский телесериал канала Showtime, основанный на романе Джеффри Линдсея «Дремлющий демон Декстера» (англ. Darkly Dreaming Dexter, дословно «Мрачно мечтающий Декстер») и адаптированный для телевидения лауреатом Эмми сценаристом Джеймсом Маносом мл., который написал сценарий для пилотного эпизода. События сериала рассказывают о Декстере Моргане (Майкл Холл), вымышленном серийном убийце, работающем судебным экспертом по брызгам крови в полиции Майами. Сериал неоднократно номинировался на различные премии, такие как «Эмми», «IGN», «Satellite Awards» и «Сатурн». Также сериал подвергался критике со стороны родительских организаций (таких как «Parents Television Council»), как излишне жестокий и аморальный



Страна: США
Студия: Showtime Networks Inc., John Goldwyn Productions, Devilina Productions, Colleton Company
Продолжительность: 12 x ~ 00:53:00
Перевод: Профессиональный многоголосый

Файл
Контейнер: MKV
Кодек: MPEG-4 AVC / H.264
Качество: BDRip
Видео: 720x408, ~ 1400 Кбит/с, 23.976 Кадр/с
Звук:
Русский (AC3, 6 ch, 384 Кбит/с) | LostFilm
Английский (AC3, 6 ch, 448 Кбит/с)
Субтитры: Русские. английские

АНОНСЫ ПОПУЛЯРНЫХ РАЗДАЧ


04.04.2014 г. торент обновлён, добавлена 6-12 серия!
01. A Beautiful Day / Прекрасный день
02. Every Silver Lining / Нет худа без добра
03. Что гложет Декстера Моргана? / What's Eating Dexter Morgan?
04. Рубцовая ткань / Scar Tissue
05. Первый негритёнок / This Little Piggy
06. Немного размышлений / A Little Reflection
07. Дресс-код / Dress Code
08. Мы уже там? / Are We There Yet?
09. Создай свой собственный вид музыки / Make Your Own Kind of Music
10. Прощай Майами / Goodbye Miami
11. Обезьяна в коробке / Monkey In a Box
12. Помнишь монстров? / Remember the Monsters?
General
Unique ID : 239540733391692585547154029026609290020 (0xB435DDFC7DA5C371ADE043BC9A715B24)
Complete name : G:MKVDexter.S08.BDRip-AVCDexter S08E01 BDRip-AVC.mkv
Format : Matroska
Format version : Version 2
File size : 849 MiB
Duration : 52mn 59s
Overall bit rate : 2 239 Kbps
Movie name : Dexter.s8e01.A.Beautiful.Day (BDRip-AVC)
Encoded date : UTC 2014-03-03 21:30:49
Writing application : mkvmerge v6.8.0 ('Theme for Great Cities') 32bit built on Mar 2 2014 21:27:07
Writing library : libebml v1.3.0 + libmatroska v1.4.1
Attachment : Yes

Video
ID : 1
Format : AVC
Format/Info : Advanced Video Codec
Format profile : High@L3.1
Format settings, CABAC : Yes
Format settings, ReFrames : 9 frames
Codec ID : V_MPEG4/ISO/AVC
Duration : 52mn 59s
Bit rate : 1 405 Kbps
Width : 720 pixels
Height : 408 pixels
Display aspect ratio : 16:9
Frame rate mode : Constant
Frame rate : 23.976 fps
Color space : YUV
Chroma subsampling : 4:2:0
Bit depth : 8 bits
Scan type : Progressive
Bits/(Pixel*Frame) : 0.199
Stream size : 516 MiB (61%)
Title : Dexter.s8e01.A.Beautiful.Day (BDRip-AVC) -B@ZILI0-
Writing library : x264 core 140 r2377 1ca7bb9
Encoding settings : cabac=1 / ref=9 / deblock=1:-3:-3 / analyse=0x3:0x133 / me=umh / subme=11 / psy=1 / psy_rd=1.05:0.05 / mixed_ref=1 / me_range=32 / chroma_me=1 / trellis=2 / 8x8dct=1 / cqm=0 / deadzone=21,11 / fast_pskip=0 / chroma_qp_offset=-3 / threads=6 / lookahead_threads=1 / sliced_threads=0 / nr=0 / decimate=0 / interlaced=0 / bluray_compat=0 / constrained_intra=0 / bframes=8 / b_pyramid=2 / b_adapt=2 / b_bias=0 / direct=3 / weightb=1 / open_gop=0 / weightp=2 / keyint=240 / keyint_min=23 / scenecut=40 / intra_refresh=0 / rc=2pass / mbtree=0 / bitrate=1405 / ratetol=1.0 / qcomp=0.65 / qpmin=0 / qpmax=69 / qpstep=4 / cplxblur=20.0 / qblur=0.5 / ip_ratio=1.40 / pb_ratio=1.30 / aq=1:1.00
Language : English
Default : Yes
Forced : No

Audio #1
ID : 2
Format : AC-3
Format/Info : Audio Coding 3
Mode extension : CM (complete main)
Format settings, Endianness : Big
Codec ID : A_AC3
Duration : 52mn 59s
Bit rate mode : Constant
Bit rate : 384 Kbps
Channel(s) : 6 channels
Channel positions : Front: L C R, Side: L R, LFE
Sampling rate : 48.0 KHz
Bit depth : 16 bits
Compression mode : Lossy
Stream size : 146 MiB (17%)
Title : LostFilm AC3 5.1 384 Kbps
Language : Russian
Default : Yes
Forced : No

Audio #2
ID : 3
Format : AC-3
Format/Info : Audio Coding 3
Mode extension : CM (complete main)
Format settings, Endianness : Big
Codec ID : A_AC3
Duration : 52mn 59s
Bit rate mode : Constant
Bit rate : 448 Kbps
Channel(s) : 6 channels
Channel positions : Front: L C R, Side: L R, LFE
Sampling rate : 48.0 KHz
Bit depth : 16 bits
Compression mode : Lossy
Stream size : 170 MiB (20%)
Title : Original AC3 5.1 448 Kbps
Language : English
Default : No
Forced : No

Text #1
ID : 4
Format : UTF-8
Codec ID : S_TEXT/UTF8
Codec ID/Info : UTF-8 Plain Text
Title : N-Team
Language : Russian
Default : No
Forced : No

Text #2
ID : 5
Format : UTF-8
Codec ID : S_TEXT/UTF8
Codec ID/Info : UTF-8 Plain Text
Title : Артём Кущак
Language : Russian
Default : No
Forced : No

Text #3
ID : 6
Format : UTF-8
Codec ID : S_TEXT/UTF8
Codec ID/Info : UTF-8 Plain Text
Title : Ирина Олонова
Language : Russian
Default : No
Forced : No

Text #4
ID : 7
Format : UTF-8
Codec ID : S_TEXT/UTF8
Codec ID/Info : UTF-8 Plain Text
Language : English
Default : No
Forced : No

Menu
00:00:00.000 : en:00:00:00.000
00:03:21.201 : en:00:03:21.201
00:05:07.307 : en:00:05:07.307
00:12:26.245 : en:00:12:26.245
00:19:55.861 : en:00:19:55.861
00:31:13.205 : en:00:31:13.205
00:40:55.328 : en:00:40:55.328
00:52:03.662 : en:00:52:03.662
B@ZILI0

Pабота со звуком AMDG1000, koharubiyori
Субтитры: Английские, Русские (N-Team / Артём Кущак / Ирина Олонова)

Данный релиз создан B@ZILI0 в качестве и как дополнение к его же релизу (представленному на Руторе ) ввиду того, что 8 сезон сериала не был озвучен студией NovaFilm

Доп. информация: исправил параметры командной строки контейнера MKV всех серий для устранения проблем ускоренной перемотки на "железных" плеерах



Скачать Правосудие.Декстера.Dexter.(сезон.08).(Маркос.Сига.Тим.Хантер.Кит.Гордон).[2013.триллер.драма.криминал.детектив.BDRip-AVC].[MVO.(LostFilm)].torrent без регистрации
Золото ЗОЛОТАЯ РАЗДАЧА! СКАЧАННОЕ НЕ ЗАСЧИТЫВАЕТСЯ! Золото
Дата: Зарегистрирован   [ Тип: внутренний ] Как тут cкачать?
MAGNET ссылка
MAGNET ссылка


Скачать .torrent

51 KB

Статус: проверено DHT
Скачан: торрент - 212 раз, раздача полностью - 61 раз
Размер: 9,95 GB
Оценка:  4,7 (Голосов: 3)
Поблагодарили: 6
Поделиться ссылкой на эту раздачу с друзьями:
В контактеFacebookОдноклассникиTwitterLivejournalМой МирLiveinternet
 

 

МихаНЕзатор

[] 

Раздача обновлена.
 
Показать сообщения:    


Вы не можете начинать темы
Вы не можете отвечать на сообщения
Вы не можете редактировать свои сообщения
Вы не можете удалять свои сообщения
Вы не можете голосовать в опросах
Вы не можете прикреплять файлы к сообщениям
Вы можете скачивать файлы