Loading...
Error

Скачать Устрицы из Лозанны (Владимир Шамшурин) [1992, боевик, комедия, DVDRip] торрент без регистрации

 
Статистика раздачи
Размер:  1,45 GB   |    Скачан:  178 раз
Сидов:  1  [  0 KB/s  ]  
 
Автор Сообщение

leon030982

[] 

Устрицы из Лозанны



Год выпуска: 1992
Страна: Россия
Жанр: боевик, комедия
Продолжительность: 01:14:12
Режиссёр: Владимир Шамшурин

В ролях: Александр Панкратов-Черный, Вера Глаголева, Владимир Ильин, Сергей Степанченко, Олег Шкловский, Лариса Удовиченко, Валерий Гончар, Леонид Машков, Виталий Яковлев, Вадим Александров
Описание: Создав для себя и своих друзей фирму, Роман Лебедичкин набрал кредиты и… обанкротился. Дело сделали вместе, а сел он один. Отсидев часть положенного срока в тюрьме, откуда он имел возможность руководить делами фирмы, Лебедичкин вернулся в родные места, где его не только не ждали, но и сочли возвращение явно преждевременным…

Качество видео: DVDRip (DVD5) Спасибо Aradzhan
Формат видео: AVI
Видео кодек: XviD
Аудио кодек: AC3
Видео: 688x512 (1.34:1), 25 fps, XviD build 65 ~2346 kbps avg, 0.27 bit/pixel
Аудио: 48 kHz, AC3 Dolby Digital, 3/2 (L,C,R,l,r) ch, ~448 kbps
General
Complete name : E:\Устрицы из Лозанны.1992.DVDRip.XviD.AC3.avi
Format : AVI
Format/Info : Audio Video Interleave
File size : 1.45 GiB
Duration : 1h 14mn
Overall bit rate : 2 805 Kbps
Writing application : VirtualDubMod 1.5.10.2 (build 2540/release)
Writing library : VirtualDubMod build 2540/release
Video
ID : 0
Format : MPEG-4 Visual
Format profile : Advanced Simple@L5
Format settings, BVOP : 1
Format settings, QPel : No
Format settings, GMC : No warppoints
Format settings, Matrix : Custom
Codec ID : XVID
Codec ID/Hint : XviD
Duration : 1h 14mn
Bit rate : 2 347 Kbps
Width : 688 pixels
Height : 512 pixels
Display aspect ratio : 4:3
Frame rate : 25.000 fps
Color space : YUV
Chroma subsampling : 4:2:0
Bit depth : 8 bits
Scan type : Progressive
Compression mode : Lossy
Bits/(Pixel*Frame) : 0.267
Stream size : 1.22 GiB (84%)
Writing library : XviD 65
Audio
ID : 1
Format : AC-3
Format/Info : Audio Coding 3
Mode extension : CM (complete main)
Format settings, Endianness : Big
Codec ID : 2000
Duration : 1h 14mn
Bit rate mode : Constant
Bit rate : 448 Kbps
Channel(s) : 5 channels
Channel positions : Front: L C R, Side: L R
Sampling rate : 48.0 KHz
Bit depth : 16 bits
Compression mode : Lossy
Stream size : 238 MiB (16%)
Alignment : Split accross interleaves
Interleave, duration : 40 ms (1.00 video frame)
Interleave, preload duration : 500 ms



Скачать Устрицы.из.Лозанны.(Владимир.Шамшурин).[1992.боевик.комедия.DVDRip].torrent без регистрации
Золото ЗОЛОТАЯ РАЗДАЧА! СКАЧАННОЕ НЕ ЗАСЧИТЫВАЕТСЯ! Золото
Дата: Зарегистрирован   [ Тип: внутренний ] Как тут cкачать?
MAGNET ссылка
MAGNET ссылка


Скачать .torrent

15 KB

Статус: проверено DHT
Скачан: торрент - 178 раз, раздача полностью - 73 раз
Размер: 1,45 GB
Оценка:  - (Голосов: 0)
Поблагодарили: 1
Поделиться ссылкой на эту раздачу с друзьями:
В контактеFacebookОдноклассникиTwitterLivejournalМой МирLiveinternet
 

 
Показать сообщения:    


Вы не можете начинать темы
Вы не можете отвечать на сообщения
Вы не можете редактировать свои сообщения
Вы не можете удалять свои сообщения
Вы не можете голосовать в опросах
Вы не можете прикреплять файлы к сообщениям
Вы можете скачивать файлы