Loading...
Error

Скачать Проспект Бразилии / Avenida Brasil (31-50 из 160) (Рикардо Ваддингтон и дрю) [2012, драма, комедия, детектив, HDTV] [1080i] [MVO (Первый канал)] торрент без регистрации

 
Статистика раздачи
Размер:  49,98 GB   |    Скачан:  113 раз
Сидов:  1  [  0 KB/s  ]  
 
Автор Сообщение

МихаНЕзатор

[] 

Год выпуска: 2012
Страна: Бразилия
Производство: Central Globo de Produ—“o & Rede Globo de Televis“o
Жанр: Драма, комедия, детектив
Серии (количество): 031-060 (160)
Продолжительность: 00:45:00 / серия
Перевод: Профессиональный многоголосый закадровый (Первый канал)
Субтитры: Отсутствуют

Режиссёр: Рикардо Ваддингтон (Ricardo Waddington), Андре Камара, Густаво Фернандес, Паоло Сильвестрини, Амора Маутнер.

В ролях: Дебора Фалабелла, Адриана Эстевес, Мурило Бенисио, Кайя Реймонд, Элоиза Периссе, Марселлу Новаес, Вера Ольц, Жозе де Абреу, Элиане Жардини, Маркос Карузо, Летисия Иснард, Изис Вальверде, Бьянка Компрату, Отавио Аугусто, Паула Бурламаки, Айлтон Граса, Алешандре Боржес, Каролина Ферраз, Дебора Блок, Камила Моргаду, Тьяго Мартинс и другие.

Описание: Женезио одинокий вдовец и отец маленькой девочки по имени Рита, женится на простой девушке Карминии, считая, что она как никто лучше сможет заменить мать девочке. Сама же скрывает за своей приятной улыбкой и добрыми намерениями свою подлую сущность коварной особы. Она при поддержке Макса убирает со своего пути мужа, и после его трагической смерти понимает что единственным наследником старика осталась Рита. Карминия выгоняет свою падчерицу на свалку.



Ссылка на предыдущую раздачу

Доп. информация: Релиз -
Рип чистый. Без посторонних надписей. Выкладывается как есть.

Качество: HDTV 1080i
Контейнер: TS
Видео кодек: AVC
Аудио кодек: MP2
Видео: 1920x1080 (16:9) 25.000 fps 8 419 Kbps, 0.162 bit/pixel
Аудио: MPEG Audio 48000Hz stereo 192 Кбит/сек

10.08.2013 г. торент обновлён, добавлена 38-50 серия! Прдыдущие серии Здесь

Код:


General
ID                    : 1 (0x1)
Complete name              : D:ВыкладкаПроспект Бразилии ( Avenida Brasil) - 031-060 cерии (2012, Драма, Детектив, Комедия, HDTV 1080i) (MYDIMKA)31 серия.ts
Format                  : MPEG-TS
File size                : 2.85 GiB
Duration                 : 45mn 0s
Overall bit rate mode          : Variable
Overall bit rate             : 9 061 Kbps

Video
ID                    : 69 (0x45)
Menu ID                 : 1 (0x1)
Format                  : AVC
Format/Info               : Advanced Video Codec
Format profile              : High@L4.0
Format settings, CABAC          : Yes
Format settings, ReFrames        : 3 frames
Codec ID                 : 27
Duration                 : 45mn 0s
Bit rate                 : 8 419 Kbps
Width                  : 1 920 pixels
Height                  : 1 080 pixels
Display aspect ratio           : 16:9
Frame rate                : 25.000 fps
Standard                 : Component
Color space               : YUV
Chroma subsampling            : 4:2:0
Bit depth                : 8 bits
Scan type                : Interlaced
Scan order                : Top Field First
Bits/(Pixel*Frame)            : 0.162
Stream size               : 2.65 GiB (93%)
Color primaries             : BT.709
Transfer characteristics         : BT.709
Matrix coefficients           : BT.709

Audio
ID                    : 68 (0x44)
Menu ID                 : 1 (0x1)
Format                  : MPEG Audio
Format version              : Version 1
Format profile              : Layer 2
Codec ID                 : 3
Duration                 : 45mn 0s
Bit rate mode              : Constant
Bit rate                 : 192 Kbps
Channel(s)                : 2 channels
Sampling rate              : 48.0 KHz
Compression mode             : Lossy
Stream size               : 61.8 MiB (2%)
Language                 : English



Скачать Проспект.Бразилии.Avenida.Brasil.(31-50.из.160).(Рикардо.Ваддингтон.и.дрю).[2012.драма.комедия.детектив.HDTV].[1080i].[MVO.(Первый.канал)].torrent без регистрации
Золото ЗОЛОТАЯ РАЗДАЧА! СКАЧАННОЕ НЕ ЗАСЧИТЫВАЕТСЯ! Золото
Дата: Зарегистрирован   [ Тип: внутренний ] Как тут cкачать?
MAGNET ссылка
MAGNET ссылка


Скачать .torrent

252 KB

Статус: проверено DHT
Скачан: торрент - 113 раз, раздача полностью - 1 раз
Размер: 49,98 GB
Оценка:  - (Голосов: 0)
Поблагодарили: 0
Поделиться ссылкой на эту раздачу с друзьями:
В контактеFacebookОдноклассникиTwitterLivejournalМой МирLiveinternet
 

 

МихаНЕзатор

[] 

Раздача обновлена
 
Показать сообщения:    


Вы не можете начинать темы
Вы не можете отвечать на сообщения
Вы не можете редактировать свои сообщения
Вы не можете удалять свои сообщения
Вы не можете голосовать в опросах
Вы не можете прикреплять файлы к сообщениям
Вы можете скачивать файлы