Loading...
Error

Скачать В жопу академию / Up the Academy (Роберт Дауни ст.) [1980, комедия, DVDRip-AVC] [Оригинал]+[Sub] торрент без регистрации

 
Статистика раздачи
Размер:  1,4 GB   |    Скачан:  114 раз
Сидов:  1  [  0 KB/s  ]  
 
Автор Сообщение

Marsianka

[] 

Информация о фильме
Название: В жопу академию
Оригинальное название: Up the Academy
Год выхода: 1980
Жанр: комедия
Режиссер: Роберт Дауни ст.
В ролях: Уенделл Браун, Томми Ситера, Хатч Паркер, Ральф Маччио, Гарри Тейновиц, Том Постон, Йен Вульф, Антонио Фаргас, Стейси Нелкин, Барбара Бах

О фильме:
Молодежная комедия о четверых ребятах, которых отправляют в военную академию за то, что умудрились изрядно насолить своим родителям. Однако и в свободное от учебы и строевой подготовки время парни не теряются и устраивают свою жизнь вполне не скучной, нарушая одно за другим все правила академии, чтобы в конечном счете рассчитаться с обидчиками и заполучить здоровских девчонок, а так же, конечно же, вернуть доверие своих родителей.
Сюжет фильма основан на оригинальных комиксах журнала Mad, с появлением в фильме главной его достопримечательности - парня с обложки, снискавшего мировую известность и культовую популярность.



Страна: США
Студия: Warner Bros. Pictures
Продолжительность: 01:27:12
Язык: английский (оригинал)
Перевод: субтитры

Файл
Кодек: MKV, H.264
Качество: DVDRip-AVC
Видео: h264 (High), yuv420p, 720x304, SAR 1:1 DAR 45:19, 2100 Kbp, 23.98 fps, 23.98 tbr, 1k tbn, 180k tbc
Звук: AC3, 48000 Hz, stereo, fltp, 192 kb/s
Субтитры : русские от Family Media + английские (внешние) | SRT

x264 [info]: frame I:1108 Avg QP:15,08 size: 42747 PSNR Mean Y:48,85 U:51,00 V:51,87 Avg:49,52 Global:49,09
x264 [info]: frame P:40696 Avg QP:17,29 size: 15615 PSNR Mean Y:46,09 U:48,22 V:49,28 Avg:46,79 Global:46,36
x264 [info]: frame B:115017 Avg QP:18,99 size: 6007 PSNR Mean Y:45,24 U:47,49 V:48,95 Avg:45,99 Global:45,45
x264 [info]: consecutive B-frames: 6,8% 1,8% 6,3% 37,3% 15,5% 9,8% 8,9% 4,7% 3,6% 5,2%
x264 [info]: mb I I16..4: 4,8% 75,2% 20,0%
x264 [info]: mb P I16..4: 0,5% 13,6% 2,0% P16..4: 18,0% 24,6% 17,2% 4,8% 0,9% skip:18,4%
x264 [info]: mb B I16..4: 0,1% 2,0% 0,2% B16..8: 28,0% 19,6% 3,9% direct: 9,8% skip:36,4% L0:33,7% L1:35,7% BI:30,5%
x264 [info]: 8x8 transform intra:84,5% inter:44,9%
x264 [info]: direct mvs spatial:97,8% temporal:2,2%
x264 [info]: coded y,uvDC,uvAC intra: 95,8% 93,6% 82,6% inter: 31,3% 32,8% 15,0%
x264 [info]: i16 v,h,dc,p: 13% 9% 10% 69%
x264 [info]: i8 v,h,dc,ddl,ddr,vr,hd,vl,hu: 16% 15% 13% 7% 8% 9% 9% 10% 12%
x264 [info]: i4 v,h,dc,ddl,ddr,vr,hd,vl,hu: 15% 11% 5% 8% 13% 13% 11% 11% 11%
x264 [info]: i8c dc,h,v,p: 47% 20% 19% 14%
x264 [info]: Weighted P-Frames: Y:5,9% UV:1,3%
x264 [info]: ref P L0: 50,9% 12,4% 12,3% 7,5% 5,1% 4,6% 3,6% 2,6% 0,9% 0,1%
x264 [info]: ref B L0: 84,1% 7,2% 3,9% 1,7% 1,4% 1,0% 0,7%
x264 [info]: ref B L1: 95,4% 4,6%
x264 [info]: SSIM Mean Y:0,9866512 (18,746db)
x264 [info]: PSNR Mean Y:45,490 U:47,702 V:49,057 Avg:46,223 Global:45,688 kb/s:2100,37
General
Unique ID : 152837426870941351396783769556315353040 (0x72FB6AEE9BE5D6C0DB6477EB2F012FD0)
Complete name : /mnt/torrent/Other/Up The Academy.mkv
Format : Matroska
Format version : Version 2
File size : 1.40 GiB
Duration : 1h 27mn
Overall bit rate : 2 298 Kbps
Writing application : HandBrake rev5474
Writing library : libmkv 0.6.5
TITLE : В жопу академию / Up the Academy
ARTIST : Wendell Brown, Tommy Citera, Ralph Macchio, Hutch Parker, Harry Teinowitz
DIRECTOR : Robert Downey Sr.
DATE_RELEASED : 6 June 1980
SUMMARY : DVDRip-AVC by Family Media
GENRE : Comedy
SYNOPSIS : This puber-comedy is a kind of mixture between 'Animal House' and 'Police Academy'. Four boys are sent, for different reasons, to a the Sheldon R. Wienberg military academy. The life of dicipline asks a lot of the four geeks. Of course these boys know how to make a party out of the hard times. Will they be 'real men' after one year?

Video
ID : 1
Format : AVC
Format/Info : Advanced Video Codec
Format profile : High@L4.1
Format settings, CABAC : Yes
Format settings, ReFrames : 8 frames
Codec ID : V_MPEG4/ISO/AVC
Duration : 1h 27mn
Bit rate : 2 100 Kbps
Width : 720 pixels
Height : 304 pixels
Display aspect ratio : 2.35:1
Frame rate mode : Constant
Frame rate : 29.970 fps
Color space : YUV
Chroma subsampling : 4:2:0
Bit depth : 8 bits
Scan type : Progressive
Bits/(Pixel*Frame) : 0.320
Stream size : 1.26 GiB (90%)
Writing library : x264 core 130 r2273 b3065e6
Encoding settings : cabac=1 / ref=9 / deblock=1:-3:-3 / analyse=0x3:0x133 / me=umh / subme=11 / psy=1 / psy_rd=1,00:0,20 / mixed_ref=1 / me_range=32 / chroma_me=1 / trellis=2 / 8x8dct=1 / cqm=0 / deadzone=21,11 / fast_pskip=0 / chroma_qp_offset=-3 / threads=6 / lookahead_threads=1 / sliced_threads=0 / nr=0 / decimate=1 / interlaced=0 / bluray_compat=0 / constrained_intra=0 / bframes=9 / b_pyramid=1 / b_adapt=2 / b_bias=0 / direct=3 / weightb=1 / open_gop=0 / weightp=2 / keyint=300 / keyint_min=30 / scenecut=40 / intra_refresh=0 / rc_lookahead=60 / rc=2pass / mbtree=0 / bitrate=2100 / ratetol=1,0 / qcomp=1,00 / qpmin=0 / qpmax=69 / qpstep=4 / cplxblur=20,0 / qblur=0,5 / vbv_maxrate=62500 / vbv_bufsize=78125 / nal_hrd=none / ip_ratio=1,40 / pb_ratio=1,30 / aq=2:0,60
Language : English
Default : Yes
Forced : No
Color primaries : BT.601 NTSC
Transfer characteristics : BT.709
Matrix coefficients : BT.601

Audio
ID : 2
Format : AC-3
Format/Info : Audio Coding 3
Mode extension : CM (complete main)
Format settings, Endianness : Big
Codec ID : A_AC3
Duration : 1h 27mn
Bit rate mode : Constant
Bit rate : 192 Kbps
Channel(s) : 2 channels
Channel positions : Front: L R
Sampling rate : 48.0 KHz
Bit depth : 16 bits
Compression mode : Lossy
Stream size : 120 MiB (8%)
Language : English
Default : Yes
Forced : No
Релиз от:



Скачать В.жопу.академию.Up.the.Academy.(Роберт.Дауни.ст.).[1980.комедия.DVDRip-AVC].[Оригинал]+[Sub].torrent без регистрации
Золото ЗОЛОТАЯ РАЗДАЧА! СКАЧАННОЕ НЕ ЗАСЧИТЫВАЕТСЯ! Золото
Дата: Зарегистрирован   [ Тип: внутренний ] Как тут cкачать?
MAGNET ссылка
MAGNET ссылка


Скачать .torrent

30 KB

Статус: проверено DHT
Скачан: торрент - 114 раз, раздача полностью - 20 раз
Размер: 1,4 GB
Оценка:  - (Голосов: 0)
Поблагодарили: 4
Поделиться ссылкой на эту раздачу с друзьями:
В контактеFacebookОдноклассникиTwitterLivejournalМой МирLiveinternet
 

 
Показать сообщения:    


Вы не можете начинать темы
Вы не можете отвечать на сообщения
Вы не можете редактировать свои сообщения
Вы не можете удалять свои сообщения
Вы не можете голосовать в опросах
Вы не можете прикреплять файлы к сообщениям
Вы можете скачивать файлы