Loading...
Error

Скачать Деловая женщина / Working Girl (Майк Николс) [1988, комедия, мелодрама, WEB-DLRip-AVC] [Dub]+[MVO]+[AVO]+[Sub] торрент без регистрации

 
Статистика раздачи
Размер:  2,64 GB   |    Скачан:  106 раз
Сидов:  1  [  24 KB/s  ]  
 
Автор Сообщение

Marsianka

[] 

Информация о фильме
Название: Деловая женщина
Оригинальное название: Working Girl
Год выхода: 1988
Жанр: комедия, мелодрама
Режиссер: Майк Николс
В ролях: Мелани Гриффит, Харрисон Форд, Сигурни Уивер, Алек Болдуин, Джоан Кьюсак, Филип Боско, Нора Данн, Оливер Платт, Джеймс Лэлли, Кевин Спейси, Дэвид Духовны, Олимпия Дукакис, Эми Акино, Джеффри Нордлинг, Элизабет Уиткрафт, Зэк Гренье, Барбара Гэррик, Рики Лейк, Тимоти Кархарт

О фильме:
Предприимчивая Нью-Йоркская машинистка Тесс Мак Гилл мечтает о головокружительной карьере. Но на пути к осуществлению мечты стоит серьезная преграда, Она не умеет одеваться, стричься, общаться с нужными людьми. Но каждому человеку дается шанс устроить свою жизни. Такой шанс был дан и Мак Гилл, она получила шанс выступить в роли руководителя высшего звена, когда ее начальница сломала ногу, отдыхая в Европе. Незамедлительно Тесс занимает ее место, знакомится с биржевым брокером и заключает крупную сделку. Когда отдохнувшая и выздоровевшая начальница возвращается на работу, она понимает, что место ее занято, жених ушел к другой, и существует миллион других мелких неприятностей...



Страна: США, 20th Century Fox Film Corporation
Продолжительность: 01:53:33
Перевод: Дублированный, профессиональный многоголосый, авторский
Субтитры: Русские, английские
Дата релиза: 16.07.2013

Файл
Кодек: H.264
Качество: WEB-DLRip (AVC)
Видео: MPEG-4 AVC, 1849 Кбит/с, 1024x576
Аудио 1: Русский (AC3, 2 ch, 192 Кбит/с) - дублированный
Аудио 2: Русский (AC3, 6 ch, 448 Кбит/с) - многоголосый
Аудио 3: Русский (AC3, 3 ch, 224 Кбит/с) - авторский (Гаврилов)
Аудио 4: Русский (AC3, 3 ch, 224 Кбит/с) - авторский (Михалёв)
Аудио 5: Английский (AC3, 5 ch, 384 Кбит/с)
Общее
Уникальный идентификатор : 197021102925900557732019079236224097343 (0x9438E259A0D78954A1A9C3A2A9C91C3F)
Полное имя : E:5Delovaya.zhenwina.1988.x264.WEB-DLRip.(AVC).ExKinoRay.mkv
Формат : Matroska
Размер файла : 2,64 Гбайт
Продолжительность : 1 ч. 53 м.
Общий поток : 3324 Кбит/сек
Название фильма : Delovaya.zhenwina.1988.x264.WEB-DLRip.(AVC).ExKinoRay
Дата кодирования : UTC 2013-07-16 19:54:57
Программа кодирования : mkvmerge v4.0.0 ('The Stars were mine') сборка от Jun 6 2010 16:18:42
Библиотека кодирования : libebml v1.0.0 + libmatroska v1.0.0

Видео
Идентификатор : 1
Формат : AVC
Формат/Информация : Advanced Video Codec
Профиль формата : High@L4.1
Параметр CABAC формата : Да
Параметр ReFrames формата : 8 кадров
Идентификатор кодека : V_MPEG4/ISO/AVC
Продолжительность : 1 ч. 53 м.
Битрейт : 1849 Кбит/сек
Ширина : 1024 пикс.
Высота : 576 пикс.
Соотношение сторон : 16:9
Частота кадров : 23,976 кадр/сек
Цветовое пространство : YUV
Подвыборка цветности : 4:2:0
Битовая глубина : 8 бит
Тип развёртки : Прогрессивная
Бит/(Пиксели*Кадры) : 0.131
Размер потока : 1,42 Гбайт (54%)
Заголовок : Rip by Enigma-Vladislav71
Библиотека кодирования : x264 core 129 r2245 bc13772
Настройки программы : cabac=1 / ref=8 / deblock=1:-2:-2 / analyse=0x3:0x133 / me=umh / subme=11 / psy=1 / psy_rd=1.00:0.00 / mixed_ref=1 / me_range=48 / chroma_me=1 / trellis=2 / 8x8dct=1 / cqm=0 / deadzone=21,11 / fast_pskip=0 / chroma_qp_offset=-2 / threads=3 / lookahead_threads=1 / sliced_threads=0 / nr=0 / decimate=0 / interlaced=0 / bluray_compat=0 / constrained_intra=0 / bframes=8 / b_pyramid=2 / b_adapt=2 / b_bias=0 / direct=3 / weightb=1 / open_gop=0 / weightp=2 / keyint=240 / keyint_min=23 / scenecut=40 / intra_refresh=0 / rc_lookahead=40 / rc=2pass / mbtree=1 / bitrate=1849 / ratetol=1.0 / qcomp=0.60 / qpmin=10 / qpmax=51 / qpstep=4 / cplxblur=20.0 / qblur=0.5 / ip_ratio=1.40 / aq=2:1.00
Язык : English

Аудио #1
Идентификатор : 2
Формат : AC-3
Формат/Информация : Audio Coding 3
Расширение режима : CM (complete main)
Идентификатор кодека : A_AC3
Продолжительность : 1 ч. 53 м.
Вид битрейта : Постоянный
Битрейт : 192 Кбит/сек
Каналы : 2 канала
Расположение каналов : Front: L R
Частота : 48,0 КГц
Битовая глубина : 16 бит
Метод сжатия : С потерями
Размер потока : 156 Мбайт (6%)
Заголовок : дублированный
Язык : Russian

Аудио #2
Идентификатор : 3
Формат : AC-3
Формат/Информация : Audio Coding 3
Расширение режима : CM (complete main)
Идентификатор кодека : A_AC3
Продолжительность : 1 ч. 53 м.
Вид битрейта : Постоянный
Битрейт : 448 Кбит/сек
Каналы : 6 каналов
Расположение каналов : Front: L C R, Side: L R, LFE
Частота : 48,0 КГц
Битовая глубина : 16 бит
Метод сжатия : С потерями
Размер потока : 364 Мбайт (13%)
Заголовок : многоголосый
Язык : Russian

Аудио #3
Идентификатор : 4
Формат : AC-3
Формат/Информация : Audio Coding 3
Расширение режима : CM (complete main)
Идентификатор кодека : A_AC3
Продолжительность : 1 ч. 53 м.
Вид битрейта : Постоянный
Битрейт : 224 Кбит/сек
Каналы : 3 канала
Расположение каналов : Front: L C R
Частота : 48,0 КГц
Битовая глубина : 16 бит
Метод сжатия : С потерями
Размер потока : 182 Мбайт (7%)
Заголовок : Гаврилов
Язык : Russian

Аудио #4
Идентификатор : 5
Формат : AC-3
Формат/Информация : Audio Coding 3
Расширение режима : CM (complete main)
Идентификатор кодека : A_AC3
Продолжительность : 1 ч. 53 м.
Вид битрейта : Постоянный
Битрейт : 224 Кбит/сек
Каналы : 3 канала
Расположение каналов : Front: L C R
Частота : 48,0 КГц
Битовая глубина : 16 бит
Метод сжатия : С потерями
Размер потока : 182 Мбайт (7%)
Заголовок : Михалёв
Язык : Russian

Аудио #5
Идентификатор : 6
Формат : AC-3
Формат/Информация : Audio Coding 3
Расширение режима : CM (complete main)
Идентификатор кодека : A_AC3
Продолжительность : 1 ч. 53 м.
Вид битрейта : Постоянный
Битрейт : 384 Кбит/сек
Каналы : 5 каналов
Расположение каналов : Front: L C R, Side: L R
Частота : 48,0 КГц
Битовая глубина : 16 бит
Метод сжатия : С потерями
Размер потока : 312 Мбайт (12%)
Заголовок : английский
Язык : English

Текст #1
Идентификатор : 7
Формат : UTF-8
Идентификатор кодека : S_TEXT/UTF8
Идентификатор кодека/Информация : UTF-8 Plain Text
Язык : Russian

Текст #2
Идентификатор : 8
Формат : UTF-8
Идентификатор кодека : S_TEXT/UTF8
Идентификатор кодека/Информация : UTF-8 Plain Text
Язык : English
Семпл Релиз от:

Авторы релиза:



Скачать Деловая.женщина.Working.Girl.(Майк.Николс).[1988.комедия.мелодрама.WEB-DLRip-AVC].[Dub]+[MVO]+[AVO]+[Sub].torrent без регистрации
Золото ЗОЛОТАЯ РАЗДАЧА! СКАЧАННОЕ НЕ ЗАСЧИТЫВАЕТСЯ! Золото
Дата: Зарегистрирован   [ Тип: внутренний ] Как тут cкачать?
MAGNET ссылка
MAGNET ссылка


Скачать .torrent

14 KB

Статус: проверено DHT
Скачан: торрент - 106 раз, раздача полностью - 20 раз
Размер: 2,64 GB
Оценка:  - (Голосов: 0)
Поблагодарили: 2
Поделиться ссылкой на эту раздачу с друзьями:
В контактеFacebookОдноклассникиTwitterLivejournalМой МирLiveinternet
 

 
Показать сообщения:    


Вы не можете начинать темы
Вы не можете отвечать на сообщения
Вы не можете редактировать свои сообщения
Вы не можете удалять свои сообщения
Вы не можете голосовать в опросах
Вы не можете прикреплять файлы к сообщениям
Вы можете скачивать файлы