Loading...
Error

Скачать Оранжевый - новый черный / Orange Is the New Black (сезон 01) (Майкл Трим) [2013, драма, WEBRip] [MVO (NewStudio)] торрент без регистрации

 
Статистика раздачи
Размер:  8,59 GB   |    Скачан:  11911 раз
Сидов:  2  [  42 KB/s  ]   Личеров:  1  [  0 KB/s  ]  
 
Автор Сообщение

МихаНЕзатор

[] 

Год выпуска: 2013
Страна: США
Жанр: драма
Режиссёр: Майкл Трим
Продолжительность: ~ 50 минут / Серия
Перевод: Профессиональный (многоголосый, закадровый) - NewStudio
Субтитры: Нет

В ролях: Тейлор Шиллинг, Джейсон Биггз, Мишель Хёрст, Кейт Малгрю, Наташа Лионн, Лора Припон, Майкл Харни, Лиа ДеЛария, Тэрин Мэннинг, Dascha Polanco и др.

Описание: Главная героиня отправляется в женскую тюрьму отбывать 15-месячный срок за пособничество своей бывшей любовнице - международной наркоторговке.

Озвучка: Александр Дасевич, Ирина Воронова, Анна Тух
Перевод: Weirdie
Постер: Андрей Шапал

Качество: WEBRip
Формат: AVI
Видео кодек: XviD
Аудио кодек: MP3
Видео: 720x400 (16:9), 23.976 fps, ~1230 kbps, ~0.175 bit/pixel
Аудио Rus: 48 kHz, 2 ch, ~128 kbps |NewStudio|
Аудио Eng: 48 kHz, 2 ch, ~128 kbps |Original|



27.08.2013 г. торент обновлён, добавлена 13 серия!

01. I Wasn't Ready / Я была не готова
02. Tit Punch / Прямой в сиську

Общее
Полное имя : I:Orange Is the New Black (NewStudio)Orange.Is.the.New.Black.s01e01.WEBRip.NewStudio.TV.avi
Формат : AVI
Формат/Информация : Audio Video Interleave
Размер файла : 550 Мбайт
Продолжительность : 51 м.
Общий поток : 1505 Кбит/сек
Программа кодирования : VirtualDubMod 1.5.10.2 (build 2540/release)
Библиотека кодирования : VirtualDubMod build 2540/release

Видео
Идентификатор : 0
Формат : MPEG-4 Visual
Профиль формата : Advanced Simple@L5
Параметр BVOP формата : 2
Параметр QPel формата : Нет
Параметр GMC формата : Без точки перехода
Параметр матрицы формата : Default (MPEG)
Идентификатор кодека : XVID
Идентификатор кодека/Подсказка : XviD
Продолжительность : 51 м.
Битрейт : 1235 Кбит/сек
Ширина : 720 пикселей
Высота : 400 пикселей
Соотношение сторон : 16:9
Частота кадров : 23,976 кадра/сек
Цветовое пространство : YUV
Субдискретизация насыщенности : 4:2:0
Битовая глубина : 8 бит
Тип развёртки : Прогрессивная
Метод сжатия : С потерями
Бит/(Пиксели*Кадры) : 0.179
Размер потока : 451 Мбайт (82%)
Библиотека кодирования : XviD 64

Аудио #1
Идентификатор : 1
Формат : MPEG Audio
Версия формата : Version 1
Профиль формата : Layer 3
Режим : Joint stereo
Расширение режима : MS Stereo
Идентификатор кодека : 55
Идентификатор кодека/Подсказка : MP3
Продолжительность : 51 м.
Вид битрейта : Постоянный
Битрейт : 128 Кбит/сек
Каналы : 2 канала
Частота : 48,0 КГц
Метод сжатия : С потерями
Размер потока : 46,8 Мбайт (9%)
Выравнивание : Соединение по промежуткам
Продолжительность промежутка : 42 мс. (1,00 видеокадр)
Время предзагрузки промежутка : 504 мс.

Аудио #2
Идентификатор : 2
Формат : MPEG Audio
Версия формата : Version 1
Профиль формата : Layer 3
Режим : Joint stereo
Расширение режима : MS Stereo
Идентификатор кодека : 55
Идентификатор кодека/Подсказка : MP3
Продолжительность : 51 м.
Вид битрейта : Постоянный
Битрейт : 128 Кбит/сек
Каналы : 2 канала
Частота : 48,0 КГц
Метод сжатия : С потерями
Размер потока : 46,8 Мбайт (9%)
Выравнивание : Соединение по промежуткам
Продолжительность промежутка : 42 мс. (1,00 видеокадр)
Время предзагрузки промежутка : 504 мс.



Скачать Оранжевый.-.новый.черный.Orange.Is.the.New.Black.(сезон.01).(Майкл.Трим).[2013.драма.WEBRip].[MVO.(NewStudio)].torrent без регистрации
Золото ЗОЛОТАЯ РАЗДАЧА! СКАЧАННОЕ НЕ ЗАСЧИТЫВАЕТСЯ! Золото
Дата: Зарегистрирован   [ Тип: внутренний ] Как тут cкачать?
MAGNET ссылка
MAGNET ссылка


Скачать .torrent

23 KB

Статус: проверено DHT
Скачан: торрент - 11911 раз, раздача полностью - 2126 раз
Размер: 8,59 GB
Оценка:  4,5 (Голосов: 2)
Поблагодарили: 2
Поделиться ссылкой на эту раздачу с друзьями:
В контактеFacebookОдноклассникиTwitterLivejournalМой МирLiveinternet
 

 

МихаНЕзатор

[] 

Раздача обновлена
 
Показать сообщения:    


Вы не можете начинать темы
Вы не можете отвечать на сообщения
Вы не можете редактировать свои сообщения
Вы не можете удалять свои сообщения
Вы не можете голосовать в опросах
Вы не можете прикреплять файлы к сообщениям
Вы можете скачивать файлы