Loading...
Error

Скачать Наследство / L'heritage (Теймураз Баблуани, Гела Баблуани) [2006, драма, DVDRip-AVC] [MVO]+[Sub] торрент без регистрации

 
Статистика раздачи
Размер:  1,42 GB   |    Скачан:  111 раз
Сидов:  1  [  0 KB/s  ]  
 
Автор Сообщение

Marsianka

[] 

Информация о фильме
Название: Наследство
Оригинальное название: L'heritage
Год выхода: 2006
Жанр: драма
Режиссер: Теймураз Баблуани, Гела Баблуани
В ролях: Сильви Тестю, Станислас Мерар, Ольга Легран, Паскаль Бонгар, Георгий Баблуани, Лео Гапаридзе, Огюстен Легран, Гиви Сихарулидзе

О фильме:
Жан, Селин и Пат приезжают в Тбилиси, чтобы вступить в наследство. Сопровождаемые переводчиком Николаем, они встречают в автобусе, на котором едут в горы, старика и его внука, везущих с собой пустой гроб. Эти люди направляются во вражеский клан, где дед должен быть принесен в жертву с целью положить конец распрям между двумя семействами. Французы также направляются в эту деревню

Новый фильм Теймураза и Гелы Баблуани являет столкновение Запада с его гуманизмом и рационализмом и древней культуры с ее вековыми традициями. В «Наследстве» присутствуют все фирменные знаки нашумевшей ленты Гелы Баблуани «Тринадцать», после которой талантливый грузинский режиссер был назван надеждой французского кинематографа: психологическая непредсказуемость, редкая в наше время новизна сюжета и неповторимое сочетание насилия и нежности.



Страна: Франция Грузия
Студия: Les Films de la Strada, Quasar Pictures, Premium Films
Продолжительность: 01:12:20
Перевод: Профессиональный (многоголосый, закадровый)

Файл
Кодек: h.264
Качество: DVDRip-AVC
Видео: 704x432 (2.35:1) @ 1016x432 (анаморф), 25.000 fps, AVC, ~1916 Kbps, 0.252 bits/pixel
Звук:
Французский, 48.0 KHz, AC3, 6 ch, 448 Kbps
Русский, 48.0 KHz, AC3, 6 ch, 448 Kbps
Субтитры: Русские, VobSub

Исходник R5 RUSCICO
Общее
Уникальный идентификатор : 203710511782809942634339648001760618854 (0x994137ABA5FB7D7797666E14D504E966)
Полное имя : D:FilmsNasledstvo.2006.DVDRip-AVC.mkv
Формат : Matroska
Версия формата : Version 4 / Version 2
Размер файла : 1,42 Гбайт
Продолжительность : 1 ч. 12 м.
Общий поток : 2814 Кбит/сек
Дата кодирования : UTC 2013-07-18 03:53:42
Программа кодирования : mkvmerge v6.2.0 ('Promised Land') built on Apr 28 2013 12:22:01
Библиотека кодирования : libebml v1.3.0 + libmatroska v1.4.0

Видео
Идентификатор : 1
Формат : AVC
Формат/Информация : Advanced Video Codec
Профиль формата : High@L4.1
Параметр CABAC формата : Да
Параметр ReFrames формата : 16 кадров
Идентификатор кодека : V_MPEG4/ISO/AVC
Продолжительность : 1 ч. 12 м.
Битрейт : 1916 Кбит/сек
Ширина : 704 пикселя
Высота : 432 пикселя
Соотношение сторон : 2,35:1
Соотношение сторон в оригинале : 2,35:1
Режим частоты кадров : Постоянный
Частота кадров : 25,000 кадров/сек
Цветовое пространство : YUV
Субдискретизация насыщенности : 4:2:0
Битовая глубина : 8 бит
Тип развёртки : Прогрессивная
Бит/(Пиксели*Кадры) : 0.252
Размер потока : 963 Мбайт (66%)
Библиотека кодирования : x264 core 133 r2334 a3ac64b
Настройки программы : cabac=1 / ref=16 / deblock=1:0:0 / analyse=0x3:0x133 / me=umh / subme=10 / psy=1 / psy_rd=1.05:0.10 / mixed_ref=1 / me_range=32 / chroma_me=1 / trellis=2 / 8x8dct=1 / cqm=0 / deadzone=21,11 / fast_pskip=0 / chroma_qp_offset=-3 / threads=8 / lookahead_threads=2 / sliced_threads=0 / nr=0 / decimate=0 / interlaced=0 / bluray_compat=0 / constrained_intra=0 / bframes=15 / b_pyramid=2 / b_adapt=2 / b_bias=0 / direct=3 / weightb=1 / open_gop=0 / weightp=2 / keyint=250 / keyint_min=25 / scenecut=40 / intra_refresh=0 / rc_lookahead=60 / rc=2pass / mbtree=0 / bitrate=1916 / ratetol=1.0 / qcomp=0.60 / qpmin=0 / qpmax=60 / qpstep=4 / cplxblur=20.0 / qblur=0.5 / vbv_maxrate=50000 / vbv_bufsize=62500 / nal_hrd=none / ip_ratio=1.40 / pb_ratio=1.30 / aq=1:1.00
Default : Нет
Forced : Нет
Коэффициенты матрицы : BT.601

Аудио #1
Идентификатор : 2
Формат : AC-3
Формат/Информация : Audio Coding 3
Расширение режима : CM (complete main)
Параметр Endianness формата : Big
Идентификатор кодека : A_AC3
Продолжительность : 1 ч. 12 м.
Вид битрейта : Постоянный
Битрейт : 448 Кбит/сек
Каналы : 6 каналов
Расположение каналов : Front: L C R, Side: L R, LFE
Частота : 48,0 КГц
Битовая глубина : 16 бит
Метод сжатия : С потерями
Размер потока : 232 Мбайт (16%)
Язык : French
Default : Нет
Forced : Нет

Аудио #2
Идентификатор : 3
Формат : AC-3
Формат/Информация : Audio Coding 3
Расширение режима : CM (complete main)
Параметр Endianness формата : Big
Идентификатор кодека : A_AC3
Продолжительность : 1 ч. 12 м.
Вид битрейта : Постоянный
Битрейт : 448 Кбит/сек
Каналы : 6 каналов
Расположение каналов : Front: L C R, Side: L R, LFE
Частота : 48,0 КГц
Битовая глубина : 16 бит
Метод сжатия : С потерями
Размер потока : 232 Мбайт (16%)
Язык : Russian
Default : Да
Forced : Нет

Текст
Идентификатор : 4
Формат : VobSub
Режим смешивания : zlib
Идентификатор кодека : S_VOBSUB
Идентификатор кодека/Информация : The same subtitle format used on DVDs
Язык : Russian
Default : Нет
Forced : Нет

Меню
00:00:00.000 : en:Chapter 01
00:05:40.160 : en:Chapter 02
00:11:55.680 : en:Chapter 03
00:18:18.080 : en:Chapter 04
00:24:12.160 : en:Chapter 05
00:30:11.520 : en:Chapter 06
00:35:32.480 : en:Chapter 07
00:41:50.080 : en:Chapter 08
00:48:10.080 : en:Chapter 09
00:54:45.280 : en:Chapter 10
01:00:00.000 : en:Chapter 11
01:05:08.640 : en:Chapter 12
frame I:42 Avg QP:15.88 size: 48545
frame P:525 Avg QP:17.97 size: 19090
frame B:1983 Avg QP:19.36 size: 6231
Релиз от: Temperest



Скачать Наследство.L'heritage.(Теймураз.Баблуани.Гела.Баблуани).[2006.драма.DVDRip-AVC].[MVO]+[Sub].torrent без регистрации
Золото ЗОЛОТАЯ РАЗДАЧА! СКАЧАННОЕ НЕ ЗАСЧИТЫВАЕТСЯ! Золото
Дата: Зарегистрирован   [ Тип: внутренний ] Как тут cкачать?
MAGNET ссылка
MAGNET ссылка


Скачать .torrent

15 KB

Статус: проверено DHT
Скачан: торрент - 111 раз, раздача полностью - 12 раз
Размер: 1,42 GB
Оценка:  - (Голосов: 0)
Поблагодарили: 1
Поделиться ссылкой на эту раздачу с друзьями:
В контактеFacebookОдноклассникиTwitterLivejournalМой МирLiveinternet
 

 
Показать сообщения:    


Вы не можете начинать темы
Вы не можете отвечать на сообщения
Вы не можете редактировать свои сообщения
Вы не можете удалять свои сообщения
Вы не можете голосовать в опросах
Вы не можете прикреплять файлы к сообщениям
Вы можете скачивать файлы