Loading...
Error

Скачать Их собственная лига / A League of Their Own (Пенни Маршалл) [1992, драма, комедия, спорт, BDRip-AVC] [Dub]+[Sub] торрент без регистрации

 
Статистика раздачи
Размер:  1,37 GB   |    Скачан:  104 раза
Сидов:  1  [  0 KB/s  ]  
 
Автор Сообщение

Marsianka

[] 

Их собственная лига / A League of Their Own (1992) BDRip-AVC

Информация о фильме
Название: Их собственная лига
Оригинальное название: A League of Their Own
Год выхода: 1992
Жанр: драма, комедия, спорт
Режиссер: Пенни Маршалл

В ролях: Том Хэнкс, Джина Дэвис, Мадонна, Лори Петти, Джон Ловиц, Дэвид Стрэтэйрн, Гэрри Маршалл, Билл Пуллман, Меган Кэвэна, Рози ОДоннелл, Битти Шрэм, Дон С. Дэвис, Энн Кьюсак, Эдди Джонс, Патти Пелтон, Джанет Джонс, Теа Леони, Роберт Стэнтон, Грегори Спорледер, Рэй Аллен

О фильме: Джимми Дуган бывший бейсболист, чьи славные дни в Большой Лиге уже миновали. Его приглашают тренером в Женскую Бейсбольную Лигу, созданную в 1943 году, когда все мужчины были на войне.

Видя отчаянное стремление и решительность своих подопечных, он забывает о своем пессимизме и обретает уверенность в себе и своей команде.



Страна: США
Продолжительность: 02:07:59
Перевод: Дублированный

Файл
Кодек: x.264
Качество: BDRip-AVC
Видео: 1024x416 (2,462), 23,976 fps, 1151 kbps, 0.113 bit/pixel
Звук: 48 kHz, AC3 Dolby Digital, 6 ch, ~384.00 kbps
Субтитры: Русские, Английские (отключаемые)

&
Общее
Уникальный идентификатор : 193909476717688545054560509554435876922 (0x91E19B5559E6AB41824446F40F14E83A)
Полное имя : D:TorrentA League of Their Own.1992.BDRip-AVC.mkv
Формат : Matroska
Версия формата : Version 4 / Version 2
Размер файла : 1,37 Гбайт
Продолжительность : 2 ч. 7 м.
Общий поток : 1537 Кбит/сек
Название фильма : Их собственная лига / A League of Their Own (1992) BDRip-AVC rip by Rulya74
Дата кодирования : UTC 2013-07-18 04:59:11
Программа кодирования : mkvmerge v6.2.0 ('Promised Land') built on Apr 28 2013 12:22:01
Библиотека кодирования : libebml v1.3.0 + libmatroska v1.4.0

Видео
Идентификатор : 1
Формат : AVC
Формат/Информация : Advanced Video Codec
Профиль формата : High@L4.1
Параметр CABAC формата : Да
Параметр ReFrames формата : 12 кадров
Идентификатор кодека : V_MPEG4/ISO/AVC
Продолжительность : 2 ч. 7 м.
Битрейт : 1151 Кбит/сек
Ширина : 1024 пикселя
Высота : 416 пикселей
Соотношение сторон : 2,462
Режим частоты кадров : Постоянный
Частота кадров : 23,976 кадра/сек
Цветовое пространство : YUV
Субдискретизация насыщенности : 4:2:0
Битовая глубина : 8 бит
Тип развёртки : Прогрессивная
Бит/(Пиксели*Кадры) : 0.113
Размер потока : 1,00 Гбайт (73%)
Библиотека кодирования : x264 core 133 r2334 a3ac64b
Настройки программы : cabac=1 / ref=12 / deblock=1:-3:-2 / analyse=0x3:0x113 / me=umh / subme=10 / psy=1 / psy_rd=1.25:0.05 / mixed_ref=1 / me_range=32 / chroma_me=1 / trellis=2 / 8x8dct=1 / cqm=0 / deadzone=21,11 / fast_pskip=0 / chroma_qp_offset=-3 / threads=10 / lookahead_threads=1 / sliced_threads=0 / nr=0 / decimate=1 / interlaced=0 / bluray_compat=0 / constrained_intra=0 / bframes=10 / b_pyramid=2 / b_adapt=1 / b_bias=0 / direct=3 / weightb=1 / open_gop=0 / weightp=2 / keyint=240 / keyint_min=23 / scenecut=40 / intra_refresh=0 / rc_lookahead=40 / rc=2pass / mbtree=1 / bitrate=1151 / ratetol=1.0 / qcomp=0.60 / qpmin=0 / qpmax=69 / qpstep=4 / cplxblur=20.0 / qblur=0.5 / vbv_maxrate=62500 / vbv_bufsize=78125 / nal_hrd=none / ip_ratio=1.40 / aq=1:1.00
Default : Да
Forced : Нет

Аудио
Идентификатор : 2
Формат : AC-3
Формат/Информация : Audio Coding 3
Расширение режима : CM (complete main)
Параметр Endianness формата : Big
Идентификатор кодека : A_AC3
Продолжительность : 2 ч. 7 м.
Вид битрейта : Постоянный
Битрейт : 384 Кбит/сек
Каналы : 4 канала
Расположение каналов : Front: L C R, Back: C
Частота : 48,0 КГц
Битовая глубина : 16 бит
Метод сжатия : С потерями
Размер потока : 352 Мбайт (25%)
Заголовок : Дублированный (Видеосервис)
Язык : Russian
Default : Да
Forced : Нет

Текст #1
Идентификатор : 3
Формат : UTF-8
Идентификатор кодека : S_TEXT/UTF8
Идентификатор кодека/Информация : UTF-8 Plain Text
Язык : Russian
Default : Да
Forced : Нет

Текст #2
Идентификатор : 4
Формат : UTF-8
Идентификатор кодека : S_TEXT/UTF8
Идентификатор кодека/Информация : UTF-8 Plain Text
Язык : English
Default : Нет
Forced : Нет



Скачать Их.собственная.лига.A.League.of.Their.Own.(Пенни.Маршалл).[1992.драма.комедия.спорт.BDRip-AVC].[Dub]+[Sub].torrent без регистрации
Золото ЗОЛОТАЯ РАЗДАЧА! СКАЧАННОЕ НЕ ЗАСЧИТЫВАЕТСЯ! Золото
Дата: Зарегистрирован   [ Тип: внутренний ] Как тут cкачать?
MAGNET ссылка
MAGNET ссылка


Скачать .torrent

14 KB

Статус: проверено DHT
Скачан: торрент - 104 раз, раздача полностью - 5 раз
Размер: 1,37 GB
Оценка:  - (Голосов: 0)
Поблагодарили: 1
Поделиться ссылкой на эту раздачу с друзьями:
В контактеFacebookОдноклассникиTwitterLivejournalМой МирLiveinternet
 

 
Показать сообщения:    


Вы не можете начинать темы
Вы не можете отвечать на сообщения
Вы не можете редактировать свои сообщения
Вы не можете удалять свои сообщения
Вы не можете голосовать в опросах
Вы не можете прикреплять файлы к сообщениям
Вы можете скачивать файлы