Loading...
Error

Скачать Дик Трэйси / Dick Tracy (Уоррен Битти / Warren Beatty) [1990, Боевик, Триллер, Мелодрама, Криминал, HDRip] [AVO] (М.Иванов) торрент без регистрации

 
Статистика раздачи
Размер:  2,1 GB   |    Скачан:  124 раза
Сидов:  1  [  0 KB/s  ]  
 
Автор Сообщение

leon030982

[] 

Дик Трэйси / Dick Tracy

«I'm on my way.»


Год выпуска: 1990
Страна: США
Жанр: Боевик, Триллер, Мелодрама, Криминал
Продолжительность: 01:45:05
Перевод: Авторский (одноголосый) [М.Иванов]
Cубтитры: Нет

Режиссер: Уоррен Битти / Warren Beatty

В ролях: Уоррен Битти / Warren Beatty, Аль Пачино / Al Pacino, Мадонна / Madonna, Уильям Форсайт / William Forsythe, Гленн Хедли / Glenne Headly, Чарли Корсмо / Charlie Korsmo, Дастин Хоффман / Dustin Hoffman, Чарльз Дёрнинг / Charles Durning, Пол Сорвино / Paul Sorvino, Майкл Дж. Поллард / Michael J. Pollard, Джеймс Кин / James Keane
Описание: Тридцатые годы. Чикаго. В городе всем заправляет банда головорезов, которых никто не может остановить. Единственный, кому это под силу, — отважный сыщик Дик Трэйси. И он не отступит, даже если на его пути оказывается главарь мафии. Но сердце бесстрашного героя может не устоять перед чарами соблазнительной красотки...



Качество видео: HDRip - Исх. BDRip [720p] Rip by Consul
Формат видео: AVI
Видео кодек: XviD
Аудио кодек: AC3
Видео: XviD, 704x384, 23.976 fps, ~1953 kbps, 0.30 bit/pixel
Аудио #1: Dolby AC3 / 5.1 / 48 kHz / 448 kbps [М.Иванов]
Аудио #2: Dolby AC3 / 5.1 / 48 kHz / 448 kbps [оригинал]
За BDRip [720p] спасибо Vitaha94
Цитата:
Особая благодарность в адрес AndreyTula
Видео
Идентификатор : 0
Формат : MPEG-4 Visual
Профиль формата : Advanced Simple@L5
Параметр BVOP формата : 1
Параметр QPel формата : Нет
Параметр GMC формата : Без точки перехода
Параметр матрицы формата : Выборочная
Идентификатор кодека : XVID
Идентификатор кодека/Подсказка : XviD
Продолжительность : 1 ч. 45 м.
Битрейт : 1953 Кбит/сек
Ширина : 704 пикселя
Высота : 384 пикселя
Соотношение сторон : 16:9
Частота кадров : 23,976 кадра/сек
Цветовое пространство : YUV
Субдискретизация насыщенности : 4:2:0
Битовая глубина : 8 бит
Тип развёртки : Прогрессивная
Метод сжатия : С потерями
Бит/(Пиксели*Кадры) : 0.301
Размер потока : 1,43 Гбайт (68%)
Библиотека кодирования : XviD 73

Аудио #1
Идентификатор : 1
Формат : AC-3
Формат/Информация : Audio Coding 3
Расширение режима : CM (complete main)
Идентификатор кодека : 2000
Продолжительность : 1 ч. 45 м.
Вид битрейта : Постоянный
Битрейт : 448 Кбит/сек
Каналы : 6 каналов
Расположение каналов : Front: L C R, Side: L R, LFE
Частота : 48,0 КГц
Битовая глубина : 16 бит
Метод сжатия : С потерями
Размер потока : 337 Мбайт (16%)
Выравнивание : Разделение по промежуткам
Продолжительность промежутка : 42 мс. (1,00 видеокадр)
Время предзагрузки промежутка : 500 мс.
Заголовок : AVO ( М.Иванов )

Аудио #2
Идентификатор : 2
Формат : AC-3
Формат/Информация : Audio Coding 3
Расширение режима : CM (complete main)
Идентификатор кодека : 2000
Продолжительность : 1 ч. 45 м.
Вид битрейта : Постоянный
Битрейт : 448 Кбит/сек
Каналы : 6 каналов
Расположение каналов : Front: L C R, Side: L R, LFE
Частота : 48,0 КГц
Битовая глубина : 16 бит
Метод сжатия : С потерями
Размер потока : 337 Мбайт (16%)
Выравнивание : Разделение по промежуткам
Продолжительность промежутка : 42 мс. (1,00 видеокадр)
Время предзагрузки промежутка : 500 мс.
Заголовок : Оригинал




Скачать Дик.Трэйси.Dick.Tracy.(Уоррен.Битти.Warren.Beatty).[1990.Боевик.Триллер.Мелодрама.Криминал.HDRip].[AVO].(М.Иванов).torrent без регистрации
Золото ЗОЛОТАЯ РАЗДАЧА! СКАЧАННОЕ НЕ ЗАСЧИТЫВАЕТСЯ! Золото
Дата: Зарегистрирован   [ Тип: внутренний ] Как тут cкачать?
MAGNET ссылка
MAGNET ссылка


Скачать .torrent

11 KB

Статус: проверено DHT
Скачан: торрент - 124 раз, раздача полностью - 4 раз
Размер: 2,1 GB
Оценка:  5 (Голосов: 2)
Поблагодарили: 2
Поделиться ссылкой на эту раздачу с друзьями:
В контактеFacebookОдноклассникиTwitterLivejournalМой МирLiveinternet
 

 
Показать сообщения:    


Вы не можете начинать темы
Вы не можете отвечать на сообщения
Вы не можете редактировать свои сообщения
Вы не можете удалять свои сообщения
Вы не можете голосовать в опросах
Вы не можете прикреплять файлы к сообщениям
Вы можете скачивать файлы