Loading...
Error

Скачать Орлы юриспруденции / Legal eagles (Айвэн Райтман / Ivan Reitman) [1986, мелодрама, комедия, криминал, WEB-DLRip] [DVO] (НТВ+) + [AVO] (Михалев) торрент без регистрации

 
Статистика раздачи
Размер:  1,61 GB   |    Скачан:  113 раз
Сидов:  1  [  0 KB/s  ]  
 
Автор Сообщение

leon030982

[] 

Орлы юриспруденции / Legal eagles



Год выпуска: 1986
Страна: США
Жанр: мелодрама, комедия, криминал
Продолжительность: 01:55:34
Перевод 1: Профессиональный (двухголосый, закадровый) [НТВ+]
Перевод 2: Авторский (одноголосый, закадровый) [Алексей Михалев]
Cубтитры: нет

Режиссер: Айвэн Райтман / Ivan Reitman

В ролях: Роберт Редфорд, Дебра Уингер, Дэрил Ханна, Брайан Деннехай, Теренс Стамп, Стивен Хилл, Дэвид Кленнон, Джон МакМартин, Дженнифер Дандас, Роско Ли Браун, Кристин Барански

Описание: Действие фильма вращается вокруг Челси Дердон, дочери известного художника. В восьмилетнем возрасте она стала свидетельницей ужасного зрелища. в огне пожара сгорел ее отец и его картины. Двадцать лет спустя Челси арестовывают за то, что она выкрала картину своего отца у торговца произведениями искусства...


Качество видео: WEB-DLRip [WEB-DL 720p]
Формат видео: AVI
Видео кодек: XviD
Аудио кодек: AC3
Видео: 720x304 (2.37:1), 23.976 fps, XviD build 73 ~1602 kbps avg, 0.30 bit/pixel
Аудио 1: 48 kHz, AC3 Dolby Digital, 2/0 (L,R) ch, ~192 kbps - НТВ+
Аудио 2: 48 kHz, AC3 Dolby Digital, 2/0 (L,R) ch, ~192 kbps - Михалев - отдельно
Complete name : Orly.yurisprudencii.1986.WEBDLRip.avi
Format : AVI
Format/Info : Audio Video Interleave
File size : 1.46 GiB
Duration : 1h 55mn
Overall bit rate : 1 804 Kbps
Writing application : VirtualDubMod 1.5.10.3 | www.virtualdub-fr.org || (build 2550/release)
Writing library : VirtualDubMod build 2550/release
Video
ID : 0
Format : MPEG-4 Visual
Format profile : Advanced Simple@L5
Format settings, BVOP : 2
Format settings, QPel : No
Format settings, GMC : No warppoints
Format settings, Matrix : Default (H.263)
Codec ID : XVID
Codec ID/Hint : XviD
Duration : 1h 55mn
Bit rate : 1 603 Kbps
Width : 720 pixels
Height : 304 pixels
Display aspect ratio : 2.35:1
Frame rate : 23.976 fps
Color space : YUV
Chroma subsampling : 4:2:0
Bit depth : 8 bits
Scan type : Progressive
Compression mode : Lossy
Bits/(Pixel*Frame) : 0.305
Stream size : 1.29 GiB (89%)
Writing library : XviD 73
Audio
ID : 1
Format : AC-3
Format/Info : Audio Coding 3
Mode extension : CM (complete main)
Format settings, Endianness : Big
Codec ID : 2000
Duration : 1h 55mn
Bit rate mode : Constant
Bit rate : 192 Kbps
Channel(s) : 2 channels
Channel positions : Front: L R
Sampling rate : 48.0 KHz
Bit depth : 16 bits
Compression mode : Lossy
Delay relative to video : 6ms
Stream size : 159 MiB (11%)
Alignment : Split accross interleaves
Interleave, duration : 42 ms (1.00 video frame)
Interleave, preload duration : 500 ms



Скачать Орлы.юриспруденции.Legal.eagles.(Айвэн.Райтман.Ivan.Reitman).[1986.мелодрама.комедия.криминал.WEB-DLRip].[DVO].(НТВ+).+.[AVO].(Михалев).torrent без регистрации
Золото ЗОЛОТАЯ РАЗДАЧА! СКАЧАННОЕ НЕ ЗАСЧИТЫВАЕТСЯ! Золото
Дата: Зарегистрирован   [ Тип: внутренний ] Как тут cкачать?
MAGNET ссылка
MAGNET ссылка


Скачать .torrent

17 KB

Статус: проверено DHT
Скачан: торрент - 113 раз, раздача полностью - 5 раз
Размер: 1,61 GB
Оценка:  5 (Голосов: 1)
Поблагодарили: 2
Поделиться ссылкой на эту раздачу с друзьями:
В контактеFacebookОдноклассникиTwitterLivejournalМой МирLiveinternet
 

 
Показать сообщения:    


Вы не можете начинать темы
Вы не можете отвечать на сообщения
Вы не можете редактировать свои сообщения
Вы не можете удалять свои сообщения
Вы не можете голосовать в опросах
Вы не можете прикреплять файлы к сообщениям
Вы можете скачивать файлы