Loading...
Error

Скачать Под куполом / Under the Dome (Джек Бендер) (сезон 1, серия 1-13 из 13) [2013, Мистический триллер, научная фантастика, экранизация , WEB-DLRip-AVC 1080p] [DD5.1] [ AlexFilm] торрент без регистрации

 
Статистика раздачи
Размер:  21,77 GB   |    Скачан:  614 раз
Сидов:  1  [  0 KB/s  ]  
 
Автор Сообщение

Nikolai.Baranov

[] 





Под куполом / Under the Dome




Год выпуска: 2013
Выпущено: США , Amblin Television, CBS Television Studios
Жанр: Мистический триллер, научная фантастика, экранизация
Продолжительность: 43:00
Сезон: 1
Серия: 1-13
Количество серий в сезоне: 13
Озвучка:Профессиональная многоголосая закадровая( AlexFilm)Евгения Тихонова,
Пётр Иващенко (Гланц),Михаил Суслов,Михаил Шорыгин

Перевод: Ольга Галайда
Монтаж и сведение звука: Сергей Мартынов
Субтитры: английские

Сайт сериала:



Режиссер: Джек Бендер

В ролях: Майк Фогель, Колин Форд, Аиша Хиндс, Александр Кох, Рашель Лефевр, Натали Мартинез, Дин Норрис, Джолин Парди, Бриттани Робертсон, Николас Стронг, Маккензи Линтц


Обычным погожим осенним днем город Честерс Милл, штат Мэн, оказывается внезапно отрезанным от остального мира невидимым барьером. В купол врезается самолет. Загадочное силовое поле не щадит ни постройки, ни автомобили, ни животных, ни людей. Выехавшие в соседний город по делам не могут вернуться к своим близким. Никто не понимает, что это за барьер, откуда он взялся и исчезнет ли. Дейл Барбара, ветеран войны в Ираке, а ныне повар, теперь в одной команде с несколькими отважными жителями — Джулией Шамвей, владелицей городской газеты, помощником врача, женщиной и тремя храбрыми детьми. Против них выступает Большой Джим Ренни — местный политический деятель, который для удержания власти не остановится ни перед чем, даже перед убийством, а также его сын со своим личным «скелетом в шкафу». Но главный их противник — сам Купол… «Под Куполом» (Under the Dome) — роман Стивена Кинга, который опубликован в США 10 ноября 2009 года. Роман является переработанной идеей, с которой Кинг работал уже дважды, в конце 1970-х годов и в начале 1980-х — изначально под названием «Под Куполом», а потом «Каннибалы» (The Cannibals). Оба раза автор забрасывал работу, возвратившись к этому материалу лишь во второй половине 2000-х годов.

Качество : WEB-DLRip-AVC 1080p
Формат: MPEG-4
Видео кодек: H264
Видео: 5209Кбит/сек,1920х1080(16.9),в 25.000кадр/сек,AVC(Baseline@L5.0)(1Ref Frames)
Аудио кодек: AAC
Аудио Russian Dolby Digital 5.1:456Кбит/сек,44.1КГц,6каналов,AAC,(Version4)(LC)


Звуковая дорожка сделана путем наложения чистого голоса озвучивателей на центральный канал оригинальной дорожки. Качество идентично звуковой дорожке.



01 Пилот (Pilot)
02 Пожар (The Fire)
03. Облава (Manhunt)
04 Эпидемия (Outbreak)
05 Огонь по своим (Blue on Blue)
06 Бесконечная жажда (The Endless Thirst)
07 Неидеальные круги (Imperfect Circles)
08 Кровь не вода (Thicker Than Water)
09 Четвёртая рука (The Fourth Hand)
10 Да начнутся игры (Let the Games Begin)
11 Помянешь дьявола... (Speak of the Devil)
12 Неотложные обстоятельства (Exigent Circumstances)
13.Занавес (Curtains)



General
Полное имя : D:\У Ж А С Ы\Под куполом\Under_THE_Dome_2013_S01_RUS[AlexFilmi]_DD5.1_x264_Nikolai.Baranov_WEB-DLRip-AVC_(1080p)\Under_THE_Dome_2013_S01E01_RUS[AlexFilmi]_DD5.1_x264_Nikolai.Baranov_WEB-DLRip-AVC_(1080p).mp4
Формат : MPEG-4
Профиль формата : Base Media
Идентификатор кодека : isom
Размер файла : 1.78 GiB
Продолжительность : 42mn 47s
Режим общего битрейта : Variable
Общий поток : 5 940 Kbps
Дата кодирования : UTC 2013-06-28 16:17:54
Дата пометки : UTC 2013-06-28 16:17:54
Программа кодирования : Lavf51.12.1

Video
Идентификатор : 1
Формат : AVC
Формат/Информация : Advanced Video Codec
Профиль формата : Baseline@L4.0
Параметр CABAC формата : No
Параметр ReFrames формата : 1 frame
Параметр GOP формата : M=1, N=12
Идентификатор кодека : avc1
Идентификатор кодека/Информация : Advanced Video Coding
Продолжительность : 42mn 47s
Вид битрейта : Variable
Битрейт : 5 526 Kbps
Максимальный битрейт : 7 950 Kbps
Ширина : 1 920 pixels
Высота : 1 080 pixels
Соотношение сторон : 16:9
Режим частоты кадров : Constant
Частота кадров : 25.000 fps
Частота кадров в оригинале : 24.000 fps
Цветовое пространство : YUV
Субдискретизация насыщенности : 4:2:0
Битовая глубина : 8 bits
Тип развёртки : Progressive
Бит/(Пиксели*Кадры) : 0.107
Размер потока : 1.65 GiB (93%)
Язык : English
Дата кодирования : UTC 2013-06-28 16:17:54
Дата пометки : UTC 2013-06-28 16:17:54

Audio
Идентификатор : 2
Формат : AAC
Формат/Информация : Advanced Audio Codec
Профиль формата : LC
Идентификатор кодека : 40
Продолжительность : 42mn 47s
Вид битрейта : Variable
Битрейт : 410 Kbps
Каналы : 6 channels
Расположение каналов : Front: L C R, Side: L R, LFE
Частота : 44.1 KHz
Метод сжатия : Lossy
Размер потока : 126 MiB (7%)
Язык : Russian
Дата кодирования : UTC 2013-06-28 16:17:54
Дата пометки : UTC 2013-06-28 16:17:54









1. Открыть торрент
2. Снять галки с тех файлов торрента, которые мы не хотим закачивать. Оставляем только на нужных нам файлах (файле).
3. Нажать О.К.

В клиенте utorrent

Инструкция

1) Открыть торрент


2) Снять галки с тех файлов торрента, которые мы не хотим закачивать:

* либо вручную, снимая с каждого файла галку( скрин №1)
* либо, нажав кнопку "Снять метки (Select None)", сняв сразу со всех файлов(скрин №2)
№1

№2

Оставляем только на нужных нам файлах (файле).

3)Нажать О.К


Внимание!!! 21.09. 2013. РАЗДАЧА ОБНОВЛЕНА.ФИНАЛ СЕЗОНА.ОБНОВИТЕ ТОРЕНТ ФАЙЛ.ПРИЯТНОГО ПРОСМОТРА.

Релиз от: Nikolai.Baranov










Скачать Под.куполом.Under.the.Dome.(Джек.Бендер).(сезон.1.серия.1-13.из.13).[2013.Мистический.триллер.научная.фантастика.экранизация.WEB-DLRip-AVC.1080p].[DD5.1].[.AlexFilm].torrent без регистрации
Золото ЗОЛОТАЯ РАЗДАЧА! СКАЧАННОЕ НЕ ЗАСЧИТЫВАЕТСЯ! Золото
Дата: Зарегистрирован   [ Тип: внутренний ] Как тут cкачать?
MAGNET ссылка
MAGNET ссылка


Скачать .torrent

56 KB

Статус: проверено DHT
Скачан: торрент - 614 раз, раздача полностью - 17 раз
Размер: 21,77 GB
Оценка:  5 (Голосов: 2)
Поблагодарили: 5
Поделиться ссылкой на эту раздачу с друзьями:
В контактеFacebookОдноклассникиTwitterLivejournalМой МирLiveinternet
 

 

KIT

[] 

Субтитры: английские,жаль не отключаются ah
 
Показать сообщения:    


Вы не можете начинать темы
Вы не можете отвечать на сообщения
Вы не можете редактировать свои сообщения
Вы не можете удалять свои сообщения
Вы не можете голосовать в опросах
Вы не можете прикреплять файлы к сообщениям
Вы можете скачивать файлы