Loading...
Error

Скачать Малыш Чероки / The Cherokee Kid (Пэрис Барклэй / Paris Barclay) [1996, Вестерн, комедия, DVDRip] [AVO] (С. Визгунов) торрент без регистрации

 
Статистика раздачи
Размер:  1,46 GB   |    Скачан:  126 раз
Сидов:  1  [  0 KB/s  ]  
 
Автор Сообщение

leon030982

[] 

Малыш Чероки / The Cherokee Kid
«He followed no rules. He lived by no laws. He had no clue»

Страна: США
Жанр: Вестерн, комедия
Год выпуска: 1996
Продолжительность: 01:32:37
Перевод: Авторский (одноголосый закадровый) [Сергей Визгунов]
Cубтитры: нет
Режиссер: Пэрис Барклэй / Paris Barclay
В ролях: Синбад, Джеймс Коберн, Грегори Хайнс, Берт Рейнолдс, А Мартинес, Эрни Хадсон, Марк Пеллегрино, Ванесса Белл Кэллоуэй, Хэл Уильямс, Обба Бабатунде, Реджиналд Т. Дорси, Доунн Льюис
Описание: В картине рассказывается история Чероки Кида, мать которого была негритянкой, а отец индейцем племени чероки. Исайя Тернер (Синбад) еще мальчишкой лишился матери и был разлучен со старшим братом Джедидайей (Хайнс). Мать убил злодей Блуменфилд (Коберн), отнимающий у бедноты земли для строительства железной дороги. Исайя поклялся отомстить, прошел забавную, хоть и полную опасностей жизненную школу, получил кличку Малыш Чероки и... Впрочем, пересказ сюжета мало что даст. Нужно смотреть эту ленту. И смешных моментов будет предостаточно, как, впрочем, и острых. В общем, отличный классический вестерн, несмотря на дату производства, в лучших традициях жанра. Да и ещё с чернокожим главным героем (что, в принципе, редкость). [Описание из релиза ketsalk]
Sample | IMDB | КиноПоиск
Качество: DVDRip
Формат: AVI
Видео кодек: XviD
Аудио кодек: AC3
Видео: 640x480 (1.33:1), 23.976 fps, XviD build 50, 2059 kbps avg, 0.28 bit/pixel
Аудио: 48 kHz, AC3 Dolby Digital, 2/0 (L,R) ch, ~192.00 kbps avg [Russian_AVO]
General
Complete name : E:\Мои раздачи\The Cherokee Kid_RG_All_Films.avi
Format : AVI
Format/Info : Audio Video Interleave
File size : 1.46 GiB
Duration : 1h 32mn
Overall bit rate : 2 261 Kbps
Writing application : VirtualDubMod 1.5.10.3
Writing library : VirtualDubMod build 2550/release
Video
ID : 0
Format : MPEG-4 Visual
Format profile : Advanced Simple@L5
Format settings, BVOP : Yes
Format settings, QPel : No
Format settings, GMC : No warppoints
Format settings, Matrix : Custom
Codec ID : XVID
Codec ID/Hint : XviD
Duration : 1h 32mn
Bit rate : 2 060 Kbps
Width : 640 pixels
Height : 480 pixels
Display aspect ratio : 4:3
Frame rate : 23.976 fps
Color space : YUV
Chroma subsampling : 4:2:0
Bit depth : 8 bits
Scan type : Progressive
Compression mode : Lossy
Bits/(Pixel*Frame) : 0.280
Stream size : 1.33 GiB (91%)
Writing library : XviD 1.2.1 (UTC 2008-12-04)
Audio
ID : 1
Format : AC-3
Format/Info : Audio Coding 3
Mode extension : CM (complete main)
Codec ID : 2000
Duration : 1h 32mn
Bit rate mode : Constant
Bit rate : 192 Kbps
Channel(s) : 2 channels
Channel positions : Front: L R
Sampling rate : 48.0 KHz
Bit depth : 16 bits
Compression mode : Lossy
Stream size : 127 MiB (8%)
Alignment : Split accross interleaves
Interleave, duration : 42 ms (1.00 video frame)
Interleave, preload duration : 500 ms



Скачать Малыш.Чероки.The.Cherokee.Kid.(Пэрис.Барклэй.Paris.Barclay).[1996.Вестерн.комедия.DVDRip].[AVO].(С.Визгунов).torrent без регистрации
Золото ЗОЛОТАЯ РАЗДАЧА! СКАЧАННОЕ НЕ ЗАСЧИТЫВАЕТСЯ! Золото
Дата: Зарегистрирован   [ Тип: внутренний ] Как тут cкачать?
MAGNET ссылка
MAGNET ссылка


Скачать .torrent

15 KB

Статус: проверено DHT
Скачан: торрент - 126 раз, раздача полностью - 5 раз
Размер: 1,46 GB
Оценка:  5 (Голосов: 1)
Поблагодарили: 3
Поделиться ссылкой на эту раздачу с друзьями:
В контактеFacebookОдноклассникиTwitterLivejournalМой МирLiveinternet
 

 
Показать сообщения:    


Вы не можете начинать темы
Вы не можете отвечать на сообщения
Вы не можете редактировать свои сообщения
Вы не можете удалять свои сообщения
Вы не можете голосовать в опросах
Вы не можете прикреплять файлы к сообщениям
Вы можете скачивать файлы