Loading...
Error

Скачать С широко закрытыми глазами / Eyes Wide Shut (Стэнли Кубрик) [1999, триллер, драма, детектив, BDRip-AVC] [MVO]+[AVO]+[Sub] торрент без регистрации

 
Статистика раздачи
Размер:  3,72 GB   |    Скачан:  133 раза

Полного источника не было: 30 минут

 
Автор Сообщение

Marsianka

[] 

Информация о фильме
Название: С широко закрытыми глазами
Оригинальное название: Eyes Wide Shut
Год выхода: 1999
Жанр: триллер, драма, детектив
Режиссер: Стэнли Кубрик
В ролях: Том Круз, Николь Кидман, Мэдисон Эджинтон, Джеки Совирис, Сидни Поллак, Лесли Лоу, Питер Бенсон, Тодд Филд, Майкл Доуен, Скай Дюмонт, Луиз Дж. Тейлор, Стюарт Торндайк, Рэндолл Пол, Жюльенна Дэвис, Лиза Леоне, Кевин Коннели, Мари Ричардсон, Томас Гибсон, Мариана Хьюитт, Дэн Роллман, Гэвин Парри, Крис Пэри, Адам Лис, Кристиан Кларк, Кайл Уиткомби, Гэри Гоба, Винесса Шоу, Флориан Уиндорфир, Раде Шербеджия, Того Игава, Эйджи Кусухара, Лили Собески, Сэм Дуглас, Энгус МакИннес, Эбигейл Гуд, Брайан В. Кук, Леон Виталий, Кармела Марнер, Алан Камминг, Фэй Мастерсон, Фил Дейвис

О фильме:
Билл и Элис Харфорд - супружеская пара, производящая впечатление счастливых людей, живущих своей размеренной жизнью в полном достатке. Но за фасадом идеальных отношений скрываются потоки ревности, неудовлетворенности, тайных желаний и жажды чего-то запредельного. Первый шаг делает Элис, рассказывая мужу о своих фантазиях. Терзаемый ревностью Билл идет дальше, выходя за рамки мыслей и слов. Он наяву отправляется в пьянящую сексуальную одиссею, ведомый соблазном и щекочущими нервы переживаниями. Если бы в начале пути он знал, что пределом его мечтаний станет возможность вернуться к своей привычной семейной жизни, он бы не поверил, ведь искушение вкусить запретный плод было слишком сильно



Страна: США, Великобритания, Warner Bros., Hobby Films, Pole Star
Продолжительность: 02:39:07
Перевод: Профессиональный многоголосый, авторский одноголосый
Субтитры: Русские, английские
Дата релиза: 18.07.2013

Файл
Кодек: H.264
Качество: BDRip (AVC)
Видео: MPEG-4 AVC, 2000 Кбит/с, 1024x576
Аудио 1: Русский (AC3, 6 ch, 448 Кбит/с) - многоголосый
Аудио 2: Русский (AC3, 6 ch, 448 Кбит/с) - авторский одноголосый (Визгунов)
Аудио 3: Английский (AC3, 6 ch, 448 Кбит/с)
Общее
Уникальный идентификатор : 198952130228536701800221838590653441546 (0x95ACC958C382B90CBC27958FC5FF260A)
Полное имя : E:3S.chiroco.zacritimi.glazami.1999.x264.BDRip.(AVC).ExKinoRay.mkv
Формат : Matroska
Размер файла : 3,72 Гбайт
Продолжительность : 2 ч. 39 м.
Общий поток : 3345 Кбит/сек
Название фильма : S.chiroco.zacritimi.glazami.1999.x264.BDRip.(AVC).ExKinoRay
Дата кодирования : UTC 2013-07-18 18:54:55
Программа кодирования : mkvmerge v4.0.0 ('The Stars were mine') сборка от Jun 6 2010 16:18:42
Библиотека кодирования : libebml v1.0.0 + libmatroska v1.0.0

Видео
Идентификатор : 1
Формат : AVC
Формат/Информация : Advanced Video Codec
Профиль формата : High@L4.1
Параметр CABAC формата : Да
Параметр ReFrames формата : 8 кадров
Идентификатор кодека : V_MPEG4/ISO/AVC
Продолжительность : 2 ч. 39 м.
Битрейт : 2000 Кбит/сек
Ширина : 1024 пикс.
Высота : 576 пикс.
Соотношение сторон : 16:9
Частота кадров : 23,976 кадр/сек
Цветовое пространство : YUV
Подвыборка цветности : 4:2:0
Битовая глубина : 8 бит
Тип развёртки : Прогрессивная
Бит/(Пиксели*Кадры) : 0.141
Размер потока : 2,15 Гбайт (58%)
Заголовок : Rip by Enigma-Vladislav71
Библиотека кодирования : x264 core 129 r2245 bc13772
Настройки программы : cabac=1 / ref=8 / deblock=1:-2:-2 / analyse=0x3:0x133 / me=umh / subme=11 / psy=1 / psy_rd=1.00:0.00 / mixed_ref=1 / me_range=48 / chroma_me=1 / trellis=2 / 8x8dct=1 / cqm=0 / deadzone=21,11 / fast_pskip=0 / chroma_qp_offset=-2 / threads=3 / lookahead_threads=1 / sliced_threads=0 / nr=0 / decimate=0 / interlaced=0 / bluray_compat=0 / constrained_intra=0 / bframes=8 / b_pyramid=2 / b_adapt=2 / b_bias=0 / direct=3 / weightb=1 / open_gop=0 / weightp=2 / keyint=240 / keyint_min=23 / scenecut=40 / intra_refresh=0 / rc_lookahead=40 / rc=2pass / mbtree=1 / bitrate=2000 / ratetol=1.0 / qcomp=0.60 / qpmin=10 / qpmax=51 / qpstep=4 / cplxblur=20.0 / qblur=0.5 / ip_ratio=1.40 / aq=2:1.00
Язык : English

Аудио #1
Идентификатор : 2
Формат : AC-3
Формат/Информация : Audio Coding 3
Расширение режима : CM (complete main)
Идентификатор кодека : A_AC3
Продолжительность : 2 ч. 39 м.
Вид битрейта : Постоянный
Битрейт : 448 Кбит/сек
Каналы : 6 каналов
Расположение каналов : Front: L C R, Side: L R, LFE
Частота : 48,0 КГц
Битовая глубина : 16 бит
Метод сжатия : С потерями
Размер потока : 510 Мбайт (13%)
Заголовок : многоголосый
Язык : Russian

Аудио #2
Идентификатор : 3
Формат : AC-3
Формат/Информация : Audio Coding 3
Расширение режима : CM (complete main)
Идентификатор кодека : A_AC3
Продолжительность : 2 ч. 39 м.
Вид битрейта : Постоянный
Битрейт : 448 Кбит/сек
Каналы : 6 каналов
Расположение каналов : Front: L C R, Side: L R, LFE
Частота : 48,0 КГц
Битовая глубина : 16 бит
Метод сжатия : С потерями
Размер потока : 510 Мбайт (13%)
Заголовок : Визгунов
Язык : Russian

Аудио #3
Идентификатор : 4
Формат : AC-3
Формат/Информация : Audio Coding 3
Расширение режима : CM (complete main)
Идентификатор кодека : A_AC3
Продолжительность : 2 ч. 39 м.
Вид битрейта : Постоянный
Битрейт : 448 Кбит/сек
Каналы : 6 каналов
Расположение каналов : Front: L C R, Side: L R, LFE
Частота : 48,0 КГц
Битовая глубина : 16 бит
Метод сжатия : С потерями
Размер потока : 510 Мбайт (13%)
Заголовок : английский
Язык : English

Текст #1
Идентификатор : 5
Формат : UTF-8
Идентификатор кодека : S_TEXT/UTF8
Идентификатор кодека/Информация : UTF-8 Plain Text
Язык : Russian

Текст #2
Идентификатор : 6
Формат : UTF-8
Идентификатор кодека : S_TEXT/UTF8
Идентификатор кодека/Информация : UTF-8 Plain Text
Язык : English

Меню
00:00:00.000 : en:Chapter 01
00:02:42.162 : en:Chapter 02
00:06:26.052 : en:Chapter 03
00:10:13.112 : en:Chapter 04
00:12:53.105 : en:Chapter 05
00:20:45.577 : en:Chapter 06
00:31:25.216 : en:Chapter 07
00:37:20.738 : en:Chapter 08
00:41:46.837 : en:Chapter 09
00:45:34.898 : en:Chapter 10
00:46:59.983 : en:Chapter 11
00:51:01.558 : en:Chapter 12
00:54:49.619 : en:Chapter 13
01:01:26.683 : en:Chapter 14
01:05:15.912 : en:Chapter 15
01:08:42.284 : en:Chapter 16
01:12:05.321 : en:Chapter 17
01:15:40.035 : en:Chapter 18
01:19:25.761 : en:Chapter 19
01:22:19.601 : en:Chapter 20
01:24:12.213 : en:Chapter 21
01:27:22.904 : en:Chapter 22
01:30:01.396 : en:Chapter 23
01:32:55.736 : en:Chapter 24
01:38:32.740 : en:Chapter 25
01:41:15.736 : en:Chapter 26
01:44:52.452 : en:Chapter 27
01:47:37.951 : en:Chapter 28
01:52:02.716 : en:Chapter 29
01:55:30.256 : en:Chapter 30
02:01:31.951 : en:Chapter 31
02:04:46.312 : en:Chapter 32
02:10:30.489 : en:Chapter 33
02:15:02.094 : en:Chapter 34
02:19:02.500 : en:Chapter 35
02:24:12.477 : en:Chapter 36
02:27:47.859 : en:Chapter 37
02:33:38.209 : en:Chapter 38
Семпл Релиз от:

Авторы релиза:



Скачать С.широко.закрытыми.глазами.Eyes.Wide.Shut.(Стэнли.Кубрик).[1999.триллер.драма.детектив.BDRip-AVC].[MVO]+[AVO]+[Sub].torrent без регистрации
Золото ЗОЛОТАЯ РАЗДАЧА! СКАЧАННОЕ НЕ ЗАСЧИТЫВАЕТСЯ! Золото
Дата: Зарегистрирован   [ Тип: внутренний ] Как тут cкачать?
MAGNET ссылка
MAGNET ссылка


Скачать .torrent

19 KB

Статус: проверено DHT
Скачан: торрент - 133 раз, раздача полностью - 173 раз
Размер: 3,72 GB
Оценка:  5 (Голосов: 3)
Поблагодарили: 5
Поделиться ссылкой на эту раздачу с друзьями:
В контактеFacebookОдноклассникиTwitterLivejournalМой МирLiveinternet
 

 
Показать сообщения:    


Вы не можете начинать темы
Вы не можете отвечать на сообщения
Вы не можете редактировать свои сообщения
Вы не можете удалять свои сообщения
Вы не можете голосовать в опросах
Вы не можете прикреплять файлы к сообщениям
Вы можете скачивать файлы