Loading...
Error

Скачать Люди в черном / Men in Black (Барри Зонненфельд / Barry Sonnenfeld) [1997, фантастика, комедия, BDRip] [4K Remastered] [Dub CEE] + Sub rus forced торрент без регистрации

 
Статистика раздачи
Размер:  1,46 GB   |    Скачан:  141 раз
Сидов:  1  [  0 KB/s  ]  
 
Автор Сообщение

leon030982

[] 

Люди в черном
Год выпуска: 1997
Страна: США
Жанр: фантастика, боевик, комедия
Продолжительность: 01:37:58
Перевод: Профессиональный [полное дублирование][лицензия CEE]
Cубтитры: русские (forced) на испанскую и инопланетную речь (внешние)
Режиссёр: Барри Зонненфельд / Barry Sonnenfeld
В ролях:
Уилл Смит, Линда Фиорентино, Томми Ли Джонс, Рип Торн, Винсент Д’Онофрио, Шиван Фэллон, Тони Шэлуб, Майк Нассбаум, Джон Гриз, Серхио Кальдерон, Карел Стрёйкен, Фредрик Лене, Ричард Хэмилтон, Кент Фалкон, Джон Александр, Кит Кэмпбелл, Кен Торли, Патрик Брин, Бекки Энн Бэйкер, Шон Уэйлен, Харш Найяр, Майкл Уиллис, Уилли С. Карпентер, Питер Линари, Дэвид Кросс, Чарльз С. Стивенсон мл., Борис Лескин, Стив Рэнкин, Энди Проски, Майкл Голдфингер, Норма Жан Гро, Шон Пламмер, Ричард Артур, Дебби Ли Кэррингтон, Верн Тройер, Тим Блэйни, Брэд Эбрелл, Том Фаунтин, Карл Дж. Джонсон, Дрю Мэсси
Описание:
Они — самый большой секрет Земли. Они работают на неофициальное правительственное агентство, регулирующее деятельность инопланетян на Земле.
Они — это лучшая, последняя и единственная линия защиты Земли от отбросов вселенной. Их работа секретна, их оружие совершенно, им нет равных, они не оставляют следов. Они — это Люди в черном.

IMDB: 7.1/10 (184,329 votes)
Кинопоиск: 8.028 (68 731)

Сэмпл
Автор рипа: MooN_WalkeR
Качество видео: BDRip [MIB_4K_BLUEBIRD]
Формат видео: AVI
Видео кодек: XviD
Аудио кодек: AC3
Видео: XviD build 65, 704x384 (1.85:1), 23.976 fps, ~1680 kbps avg, 0.259 bit/pixel
Аудио : 48 kHz, AC3 Dolby Digital, 3/2 (L,C,R,l,r) + LFE ch, ~448 kbps avg [дубляж]

Агента J могли сыграть Крис О'доннелл и Девид Швиммер.
Клинту Иствуду предлагали роль K, но он отказался.
Квентин Тарантино мог занять место режиссёра.
Уилл Смит после прочтения сценария не хотел играть в фильме, но его жена (Джада Пинкетт Смит) убедила его согласиться.
На экране наблюдения за пришельцами можно увидеть много знаменитостей, например Сильвестра Сталоне, Денни ДеВито, Исаака Мизрай, Стивена Спилберга, Джорджа Лукаса и дочь режиссера Хлою Зонненфельд.
Продюсер ленты специально заказал для актёров часы с ассиметричными корпусами, так как посчитал, что так образ будет лучше сочетаться. Тогда были выпущены специальные реплики классических моделей Hamilton Ventura с черным циферблатом.
В первой части фильма у Джека Джибса косил правый глаз, во второй - левый.
Сценарий был написан по мотивам графических новелл The Men in Black Ловелла Каннигама. Эти комиксы были изданы в 1953-м году и не были широко известны даже в США. Фактически авторы позаимствовали оттуда только идею о некоем полумифическом и законспирированном правительственном ведомстве по делам пришельцев


[color=brown]Награды:[/color]
Оскар, 1998 год
Победитель: Лучший грим
Номинации: Лучшие декорации, Лучший саундтрек к музыкальному/комедийному фильму
Золотой глобус, 1998 год
Номинации: Лучший фильм (комедия или мюзикл)
Британская академия, 1998 год
Номинации: Лучшие визуальные эффекты
Сатурн, 1998 год
Победитель: Лучший актер второго плана (Винсент Д’Онофрио), Лучшая музыка, Лучший научно-фантастический фильм
Номинации: Лучший актер (Уилл Смит), Лучший режиссер (Барри Зонненфельд), Лучшие спецэффекты, Лучший сценарий, Лучший грим
General
Complete name : D\Men.in.Black.1997.Dub.BDRip.4K.Remastered.1,46Gb.XviD.AC3\Men.in.Black.1997.Dub.BDRip.4K.Remastered.1,46Gb.XviD.AC3.avi
Format : AVI
Format/Info : Audio Video Interleave
File size : 1.46 GiB
Duration : 1h 37mn
Overall bit rate : 2 137 Kbps
Writing application : VirtualDubModRus 1.5.10.2 (build 2542/release)
Writing library : VirtualDubMod build 2542/release

Video
ID : 0
Format : MPEG-4 Visual
Format profile : Advanced Simple@L5
Format settings, BVOP : 1
Format settings, QPel : No
Format settings, GMC : No warppoints
Format settings, Matrix : Custom
Codec ID : XVID
Codec ID/Hint : XviD
Duration : 1h 37mn
Bit rate : 1 680 Kbps
Width : 704 pixels
Height : 384 pixels
Display aspect ratio : 1.85:1
Frame rate : 23.976 fps
Color space : YUV
Chroma subsampling : 4:2:0
Bit depth : 8 bits
Scan type : Progressive
Compression mode : Lossy
Bits/(Pixel*Frame) : 0.259
Stream size : 1.15 GiB (79%)
Writing library : XviD 65

Audio
ID : 1
Format : AC-3
Format/Info : Audio Coding 3
Mode extension : CM (complete main)
Format settings, Endianness : Big
Codec ID : 2000
Duration : 1h 37mn
Bit rate mode : Constant
Bit rate : 448 Kbps
Channel(s) : 6 channels
Channel positions : Front: L C R, Side: L R, LFE
Sampling rate : 48.0 KHz
Bit depth : 16 bits
Compression mode : Lossy
Stream size : 314 MiB (21%)
Alignment : Split accross interleaves
Interleave, duration : 42 ms (1.00 video frame)
Interleave, preload duration : 500 ms
Title : Dub



Скачать Люди.в.черном.Men.in.Black.(Барри.Зонненфельд.Barry.Sonnenfeld).[1997.фантастика.комедия.BDRip].[4K.Remastered].[Dub.CEE].+.Sub.rus.forced.torrent без регистрации
Золото ЗОЛОТАЯ РАЗДАЧА! СКАЧАННОЕ НЕ ЗАСЧИТЫВАЕТСЯ! Золото
Дата: Зарегистрирован   [ Тип: внутренний ] Как тут cкачать?
MAGNET ссылка
MAGNET ссылка


Скачать .torrent

15 KB

Статус: проверено DHT
Скачан: торрент - 141 раз, раздача полностью - 72 раз
Размер: 1,46 GB
Оценка:  5 (Голосов: 4)
Поблагодарили: 7
Поделиться ссылкой на эту раздачу с друзьями:
В контактеFacebookОдноклассникиTwitterLivejournalМой МирLiveinternet
 

 

leon030982

[] 

Сравнение скриншотов с раздачей от HELLYWOOD
BDRip от HELLYWOOD --- http://goldenshara.com/viewtopic.php?t=162309
 
Показать сообщения:    


Вы не можете начинать темы
Вы не можете отвечать на сообщения
Вы не можете редактировать свои сообщения
Вы не можете удалять свои сообщения
Вы не можете голосовать в опросах
Вы не можете прикреплять файлы к сообщениям
Вы можете скачивать файлы