Loading...
Error

Скачать Следствие по телу / Body of Proof (сезон 03) (Кристофер Мерфи) [2013, драма, криминал, детектив, WEB-DL] [1080p] [Dub (FOX Life)] торрент без регистрации

 
Статистика раздачи
Размер:  21,77 GB   |    Скачан:  152 раза
Сидов:  1  [  0 KB/s  ]  
 
Автор Сообщение

МихаНЕзатор

[] 

Следствие по телу / Body of Proof


Информация о фильме
Год выхода: 2013
Название: Следствие по телу
Оригинальное название: Body of Proof
Жанр: драма, криминал, детектив
Режиссер: Кристофер Мерфи / Christopher Murphy

В ролях: Дана Дилэйни (Megan Hunt), Джери Райан (Kate Murphy), Джон Кэрролл Линч (Bud Morris), Николас Бишоп (Peter Dunlop), Соня Сон (Samantha Baker), Джеффри Аренд (Ethan Gross), Уинделл Миддлбрукс (Curtis Brumfield), Сюзанн Гиллис (Medical Investigator) и др.

О фильме: «Следствие по телу» рассказывает уникальную историю судебного медэксперта доктора Меган Хант. Гениальный нейрохирург в прошлом, волей обстоятельств она становится ведущим криминалистом. Доктор Хант должна проводить все время в лаборатории. Но вместо этого врач активно включается в паутину расследований и становится настоящим сыщиком от медицины. В то время как полиция пытается получить информацию от живых, доктор Хант ищет разгадки в телах мертвых.



Страна: США
Продолжительность: 13 x ~ 00:43:00
Перевод: Профессиональный (полное дублирование) FOX Life

Файл
Кодек: H.264
Качество: WEB-DL 1080p KiNGS
Видео: 1920x1080p (16:9) | 23.976 fps | 5 024 Kbps | 0.101 bit/pixel
Звук:
Аудио: AC3 | 48KHz | 2.0 (Front: L R) | 192 kbps [RUS | Dub FOX Life]
Аудио 2: AC3 | 48KHz | 2.0 (Front: L C R, Side: L R, LFE) | 384 kbps [ENG | Original]
Субтитры: Английские (haideaf)

Уникальный идентификатор : 225453439527282204025407619998148897383 (0xA99CC0C6403C4692B377170DFB46AA67)
Полное имя : H:Body of ProofBody.of.Proof.S03.1080p.WEB-DL.H.264-BS666Body.of.Proof.S03E01.Abducted.Pt.1.1080p.WEB-DL.DD5.1.H.264-BS666.mkv
Формат : Matroska
Версия формата : Version 4 / Version 2
Размер файла : 1.70 GiB
Продолжительность : 42mn 31s
Общий поток : 5 714 Kbps
Дата кодирования : UTC 2013-06-16 22:24:57
Программа кодирования : mkvmerge v6.2.0 ('Promised Land') built on Apr 28 2013 12:22:01
Библиотека кодирования : libebml v1.3.0 + libmatroska v1.4.0

Video
Идентификатор : 1
Формат : AVC
Формат/Информация : Advanced Video Codec
Профиль формата : High@L4.0
Параметр CABAC формата : Yes
Параметр ReFrames формата : 4 frames
Идентификатор кодека : V_MPEG4/ISO/AVC
Продолжительность : 42mn 31s
Битрейт : 5 024 Kbps
Ширина : 1 920 pixels
Высота : 1 080 pixels
Соотношение сторон : 16:9
Режим частоты кадров : Constant
Частота кадров : 23.976 fps
Цветовое пространство : YUV
Субдискретизация насыщенности : 4:2:0
Битовая глубина : 8 bits
Тип развёртки : Progressive
Бит/(Пиксели*Кадры) : 0.101
Размер потока : 1.49 GiB (88%)
Язык : English
Default : Yes
Forced : No
Color primaries : BT.709
Transfer characteristics : BT.709
Matrix coefficients : BT.709

Audio #1
Идентификатор : 2
Формат : AC-3
Формат/Информация : Audio Coding 3
Расширение режима : CM (complete main)
Параметр Endianness формата : Big
Идентификатор кодека : A_AC3
Продолжительность : 42mn 31s
Вид битрейта : Constant
Битрейт : 192 Kbps
Каналы : 2 channels
Расположение каналов : Front: L R
Частота : 48.0 KHz
Битовая глубина : 16 bits
Метод сжатия : Lossy
Размер потока : 58.4 MiB (3%)
Язык : Russian
Default : Yes
Forced : No

Audio #2
Идентификатор : 3
Формат : AC-3
Формат/Информация : Audio Coding 3
Расширение режима : CM (complete main)
Параметр Endianness формата : Big
Идентификатор кодека : A_AC3
Продолжительность : 42mn 31s
Вид битрейта : Constant
Битрейт : 384 Kbps
Каналы : 6 channels
Расположение каналов : Front: L C R, Side: L R, LFE
Частота : 48.0 KHz
Битовая глубина : 16 bits
Метод сжатия : Lossy
Размер потока : 117 MiB (7%)
Язык : English
Default : No
Forced : No

Text
Идентификатор : 4
Формат : UTF-8
Идентификатор кодека : S_TEXT/UTF8
Идентификатор кодека/Информация : UTF-8 Plain Text
Язык : English
Default : No
Forced : No



Скачать Следствие.по.телу.Body.of.Proof.(сезон.03).(Кристофер.Мерфи).[2013.драма.криминал.детектив.WEB-DL].[1080p].[Dub.(FOX.Life)].torrent без регистрации
Золото ЗОЛОТАЯ РАЗДАЧА! СКАЧАННОЕ НЕ ЗАСЧИТЫВАЕТСЯ! Золото
Дата: Зарегистрирован   [ Тип: внутренний ] Как тут cкачать?
MAGNET ссылка
MAGNET ссылка


Скачать .torrent

111 KB

Статус: проверено DHT
Скачан: торрент - 152 раз, раздача полностью - 47 раз
Размер: 21,77 GB
Оценка:  5 (Голосов: 1)
Поблагодарили: 1
Поделиться ссылкой на эту раздачу с друзьями:
В контактеFacebookОдноклассникиTwitterLivejournalМой МирLiveinternet
 

 

Red peper

[] 

ay спасибо за свежак
 

Red peper

[] 

Народ,подскажите продолжение будет?
 
Показать сообщения:    


Вы не можете начинать темы
Вы не можете отвечать на сообщения
Вы не можете редактировать свои сообщения
Вы не можете удалять свои сообщения
Вы не можете голосовать в опросах
Вы не можете прикреплять файлы к сообщениям
Вы можете скачивать файлы