Loading...
Error

Скачать Ошибки прошлого / Rectify (сезон 01) (Билл Джирхарт, Кит Гордон, Николь Кэссел) [2013, драма, WEB-DLRip-AVC] [MVO (To4ka)]+[Subs (Rus, Eng)] торрент без регистрации

 
Статистика раздачи
Размер:  2,76 GB   |    Скачан:  8347 раз
Сидов:  1  [  0 KB/s  ]  
 
Автор Сообщение

МихаНЕзатор

[] 

Ошибки прошлого / Rectify


Год выпуска: 2013
Страна: США
Жанр: драма
Продолжительность: ~ 46 минут
Перевод: Любительский (многоголосый, закадровый) - To4ka
Субтитры: русские - есть (отдельно)

Режиссёры: Билл Джирхарт / Bill Gierhart, Кит Гордон / Keith Gordon, Николь Кэссел / Nicole Kassell

В ролях: Аден Янг, Дж. Смит-Камерон, Клейн Кроуфорд, Люк Кирби, Джейк Остин Уолкер, Майкл ОНил и др.
Описание: Проведя 19 лет в камере смертников за изнасилование и убийство своей 16-летней девушки, Дэниел Холден возвращается домой. Его приговор был отменен из-за возникновения новых доказательств ДНК. Проведя большую часть сознательной жизни в ожидании смерти, Дэниел должен теперь заново научиться жить.

Качество: WEB-DLRip-AVC
Формат: MKV
Видео кодек: H264
Аудио кодек: AC3
Видео: 752x424 (16:9), 23.976 fps, H264, 1 253 Kbps, 0.164 bit/pixel
Аудио: 48 kHz, AC3 Dolby Digital, 2/0 (L,R) ch, ~192.00 kbps avg
Формат субтитров: SoftSub (srt)

D:Rectify.s01.WEB-DLRip-AVC.by_dexter_lexRectify.s01e01.WEB-DLRip-AVC.by_dexter_lex.mkv
General
Unique ID : 202926027574416609348585932861357553135 (0x98AA219CE25684029354D9F9F601F5EF)
Complete name : D:Rectify.s01.WEB-DLRip-AVC.by_dexter_lexRectify.s01e01.WEB-DLRip-AVC.by_dexter_lex.mkv
Format : Matroska
Format version : Version 2
File size : 497 MiB
Duration : 47mn 59s
Overall bit rate : 1 447 Kbps
Encoded date : UTC 2013-07-18 17:32:19
Writing application : mkvmerge v6.1.0 ('Old Devil') built on Mar 4 2013 09:10:42
Writing library : libebml v1.3.0 + libmatroska v1.4.0
Video #1
ID : 1
Format : AVC
Format/Info : Advanced Video Codec
Format profile : High@L4.1
Format settings, CABAC : Yes
Format settings, ReFrames : 8 frames
Codec ID : V_MPEG4/ISO/AVC
Duration : 47mn 59s
Bit rate : 1 253 Kbps
Width : 752 pixels
Height : 424 pixels
Display aspect ratio : 16:9
Frame rate : 23.976 fps
Color space : YUV
Chroma subsampling : 4:2:0
Bit depth : 8 bits
Scan type : Progressive
Bits/(Pixel*Frame) : 0.164
Stream size : 421 MiB (85%)
Writing library : x264 core 130 r2273 b3065e6
Encoding settings : cabac=1 / ref=9 / deblock=1:-2:-2 / analyse=0x3:0x113 / me=umh / subme=9 / psy=1 / psy_rd=1.00:0.15 / mixed_ref=1 / me_range=32 / chroma_me=1 / trellis=2 / 8x8dct=1 / cqm=0 / deadzone=21,11 / fast_pskip=0 / chroma_qp_offset=-3 / threads=6 / lookahead_threads=1 / sliced_threads=0 / nr=0 / decimate=1 / interlaced=0 / bluray_compat=0 / constrained_intra=0 / bframes=9 / b_pyramid=2 / b_adapt=1 / b_bias=0 / direct=3 / weightb=1 / open_gop=0 / weightp=2 / keyint=240 / keyint_min=23 / scenecut=40 / intra_refresh=0 / rc_lookahead=60 / rc=2pass / mbtree=1 / bitrate=1253 / ratetol=1.0 / qcomp=0.60 / qpmin=0 / qpmax=69 / qpstep=4 / cplxblur=20.0 / qblur=0.5 / ip_ratio=1.40 / aq=1:1.00
Default : Yes
Forced : No
Audio #2
ID : 2
Format : AC-3
Format/Info : Audio Coding 3
Mode extension : CM (complete main)
Codec ID : A_AC3
Duration : 47mn 59s
Bit rate mode : Constant
Bit rate : 192 Kbps
Channel(s) : 2 channels
Channel positions : Front: L R
Sampling rate : 48.0 KHz
Bit depth : 16 bits
Compression mode : Lossy
Stream size : 65.9 MiB (13%)
Default : Yes
Forced : No



Скачать Ошибки.прошлого.Rectify.(сезон.01).(Билл.Джирхарт.Кит.Гордон.Николь.Кэссел).[2013.драма.WEB-DLRip-AVC].[MVO.(To4ka)]+[Subs.(Rus.Eng)].torrent без регистрации
Золото ЗОЛОТАЯ РАЗДАЧА! СКАЧАННОЕ НЕ ЗАСЧИТЫВАЕТСЯ! Золото
Дата: Зарегистрирован   [ Тип: внутренний ] Как тут cкачать?
MAGNET ссылка
MAGNET ссылка


Скачать .torrent

15 KB

Статус: проверено DHT
Скачан: торрент - 8347 раз, раздача полностью - 9 раз
Размер: 2,76 GB
Оценка:  - (Голосов: 0)
Поблагодарили: 0
Поделиться ссылкой на эту раздачу с друзьями:
В контактеFacebookОдноклассникиTwitterLivejournalМой МирLiveinternet
 

 
Показать сообщения:    


Вы не можете начинать темы
Вы не можете отвечать на сообщения
Вы не можете редактировать свои сообщения
Вы не можете удалять свои сообщения
Вы не можете голосовать в опросах
Вы не можете прикреплять файлы к сообщениям
Вы можете скачивать файлы