Loading...
Error

Скачать Люди в черном / Men in Black (Барри Зонненфельд / Barry Sonnenfeld) [1997, фантастика, комедия, BDRip] [4K Mastered] [Dub] + [AVO] (Гаврилов) + Original Eng + Subs торрент без регистрации

Страницы:  1, 2  След.

 
Статистика раздачи
Размер:  2,18 GB   |    Скачан:  142 раза
Сидов:  1  [  0 KB/s  ]  
 
Автор Сообщение

leon030982

[] 

Люди в черном / Men in Black
«Они защищают Землю от отбросов Вселенной»

Год выпуска: 1997
Страна: США / Amblin Entertainment, Columbia Pictures Corporation
Жанр: фантастика, комедия
Продолжительность: 01:37:58
Перевод 1: Профессиональный (дублированный) лицензия CEE
Перевод 2: Авторский (одноголосый закадровый) [Ю. Гаврилов]
Cубтитры: русские (forced+full) + английские (full+full SDH) внешние
Оригинальная аудиодорожка: английский

Режиссёр: Барри Зонненфельд / Barry Sonnenfeld

В ролях: Томми Ли Джонс, Уилл Смит, Винсент Д’Онофрио, Линда Фиорентино, Рип Торн, Тони Шэлуб, Шиван Фэллон, Майк Нассбаум, Джон Грайз, Фредрик Лене, Ричард Хэмилтон, Кент Фалкон, Джон Александр, Кейт Кэмпбелл, Кен Торли, Патрик Брин, Бекки Энн Бэйкер, Шон Уэйлен, Хэрш Нэйэр.

Описание: Они — самый большой секрет Земли. Они работают на неофициальное правительственное агентство, регулирующее деятельность инопланетян на Земле.
Они — это лучшая, последняя и единственная линия защиты Земли от отбросов вселенной. Их работа секретна, их оружие совершенно, им нет равных, они не оставляют следов. Они — это Люди в чёрном.

imdb.com: 7.20 (258 516)
kinopoisk.ru: 8.058 (98 561)
MPAA: - детям до 13 лет просмотр не желателен
Сэмпл: http://multi-up.com/886442
Автор рипа: MooN_WalkeR
Качество видео: BDRip [MIB_4K_BLUEBIRD]
Формат видео: AVI
Видео: XviD build 65, 704x384 (1.85:1), 23.976 fps, ~1821 kbps avg, 0.281 bit/pixel
Аудио 1: 48 kHz, AC3 Dolby Digital, 3/2 (L,C,R,l,r) + LFE ch, ~448 kbps avg (DUB)
Аудио 2: 48 kHz, AC3 Dolby Digital, 3/2 (L,C,R,l,r) + LFE ch, ~448 kbps avg (AVO)
Аудио 3: 48 kHz, AC3 Dolby Digital, 3/2 (L,C,R,l,r) + LFE ch, ~448 kbps avg (ENG)
Формат субтитров: softsub (SRT)
General
Complete name : D\Men.in.Black.1997.TRIPLE.BDRip.4K.Remastered.2,18Gb.XviD.AC3\Men.in.Black.1997.TRIPLE.BDRip.4K.Remastered.2,18Gb.XviD.AC3.avi
Format : AVI
Format/Info : Audio Video Interleave
Format profile : OpenDML
File size : 2.18 GiB
Duration : 1h 37mn
Overall bit rate : 3 189 Kbps
Writing application : VirtualDubModRus 1.5.10.2 (build 2542/release)
Writing library : VirtualDubMod build 2542/release
Video
ID : 0
Format : MPEG-4 Visual
Format profile : Advanced Simple@L5
Format settings, BVOP : 1
Format settings, QPel : No
Format settings, GMC : No warppoints
Format settings, Matrix : Custom
Codec ID : XVID
Codec ID/Hint : XviD
Duration : 1h 37mn
Bit rate : 1 821 Kbps
Width : 704 pixels
Height : 384 pixels
Display aspect ratio : 1.85:1
Frame rate : 23.976 fps
Color space : YUV
Chroma subsampling : 4:2:0
Bit depth : 8 bits
Scan type : Progressive
Compression mode : Lossy
Bits/(Pixel*Frame) : 0.281
Stream size : 1.25 GiB (57%)
Writing library : XviD 65
Audio #1
ID : 1
Format : AC-3
Format/Info : Audio Coding 3
Mode extension : CM (complete main)
Format settings, Endianness : Big
Codec ID : 2000
Duration : 1h 37mn
Bit rate mode : Constant
Bit rate : 448 Kbps
Channel(s) : 6 channels
Channel positions : Front: L C R, Side: L R, LFE
Sampling rate : 48.0 KHz
Bit depth : 16 bits
Compression mode : Lossy
Stream size : 314 MiB (14%)
Alignment : Split accross interleaves
Interleave, duration : 42 ms (1.00 video frame)
Interleave, preload duration : 500 ms
Title : DUB
Audio #2
ID : 2
Format : AC-3
Format/Info : Audio Coding 3
Mode extension : CM (complete main)
Format settings, Endianness : Big
Codec ID : 2000
Duration : 1h 37mn
Bit rate mode : Constant
Bit rate : 448 Kbps
Channel(s) : 6 channels
Channel positions : Front: L C R, Side: L R, LFE
Sampling rate : 48.0 KHz
Bit depth : 16 bits
Compression mode : Lossy
Stream size : 314 MiB (14%)
Alignment : Split accross interleaves
Interleave, duration : 42 ms (1.00 video frame)
Interleave, preload duration : 500 ms
Title : AVO
Audio #3
ID : 3
Format : AC-3
Format/Info : Audio Coding 3
Mode extension : CM (complete main)
Format settings, Endianness : Big
Codec ID : 2000
Duration : 1h 37mn
Bit rate mode : Constant
Bit rate : 448 Kbps
Channel(s) : 6 channels
Channel positions : Front: L C R, Side: L R, LFE
Sampling rate : 48.0 KHz
Bit depth : 16 bits
Compression mode : Lossy
Stream size : 314 MiB (14%)
Alignment : Split accross interleaves
Interleave, duration : 42 ms (1.00 video frame)
Interleave, preload duration : 500 ms
Title : ENG



Скачать Люди.в.черном.Men.in.Black.(Барри.Зонненфельд.Barry.Sonnenfeld).[1997.фантастика.комедия.BDRip].[4K.Mastered].[Dub].+.[AVO].(Гаврилов).+.Original.Eng.+.Subs.torrent без регистрации
Золото ЗОЛОТАЯ РАЗДАЧА! СКАЧАННОЕ НЕ ЗАСЧИТЫВАЕТСЯ! Золото
Дата: Зарегистрирован   [ Тип: внутренний ] Как тут cкачать?
MAGNET ссылка
MAGNET ссылка


Скачать .torrent

12 KB

Статус: проверено DHT
Скачан: торрент - 142 раз, раздача полностью - 95 раз
Размер: 2,18 GB
Оценка:  5 (Голосов: 2)
Поблагодарили: 3
Поделиться ссылкой на эту раздачу с друзьями:
В контактеFacebookОдноклассникиTwitterLivejournalМой МирLiveinternet
 

 

T1000

[] 

Цитата:

4K Remastered

Цитата:

704x384
ага,ну-ну
 

leon030982

[] 

T1000 писал(а):

Цитата:

4K Remastered

Цитата:

704x384
ага,ну-ну

Цитата:

рип с исходника 4K_BLUEBIRD (--ИСХОДНИК--)
Что не ясно собственно ab
 

leon030982

[] 

T1000 писал(а):

Men in Black
Сравнение скриншотов
 

T1000

[] 

leon030982 писал(а):

T1000 писал(а):

Цитата:

4K Remastered

Цитата:

704x384
ага,ну-ну

Цитата:

рип с исходника 4K_BLUEBIRD (--ИСХОДНИК--)
Что не ясно собственно ab
Не ну в названии сказано что это 4K Remastered и это ввело меня в заблуждение.
 

leon030982

[] 

T1000 писал(а):

leon030982 писал(а):

T1000 писал(а):

Цитата:

4K Remastered

Цитата:

704x384
ага,ну-ну

Цитата:

рип с исходника 4K_BLUEBIRD (--ИСХОДНИК--)
Что не ясно собственно ab
Не ну в названии сказано что это 4K Remastered и это ввело меня в заблуждение.
как автор указал то так и я написал ab
 

T1000

[] 

leon030982
А какой там фильм с Жаном Рено где он с какой то девкой снимался?
 

Spartak911

[] 

T1000 писал(а):

А какой там фильм с Жаном Рено где он с какой то девкой снимался?
Ты что, действительно не знаешь, что за фильм на аватарке у leon030982? ai ag У него даже в нике подсказка есть. al ag А какая-то девка - это Натали Портман. aj
 

T1000

[] 

Spartak911
фильм Леон в смысле?
 

Spartak911

[] 

T1000 писал(а):

фильм Леон в смысле?
Ну... да! ag А ты что ли про такой никогда не слышал? bm
 

T1000

[] 

Spartak911
Слышал и даже видел,давно,вот хочу глянуть еще ab
 

leon030982

[] 

T1000 писал(а):

Spartak911
Слышал и даже видел,давно,вот хочу глянуть еще ab
так вот к примеру
 

T1000

[] 

leon030982 писал(а):

так вот к примеру
az
 

Spartak911

[] 

T1000
Так ты же предпочитаешь в Гоблине фильмы смотреть, а на этот фильм есть озвучка от Пучкова. al
 

T1000

[] 

Spartak911
ты как всегда вовремя ag где?
 
Показать сообщения:    


Вы не можете начинать темы
Вы не можете отвечать на сообщения
Вы не можете редактировать свои сообщения
Вы не можете удалять свои сообщения
Вы не можете голосовать в опросах
Вы не можете прикреплять файлы к сообщениям
Вы можете скачивать файлы