Loading...
Error

Скачать Белая королева / The White Queen ( Колин Тиг, Джеймс Кент, Джэми Пэйн) (сезон 1, серия 1-10 из 10) (Колин Тиг, Джеймс Кент, Джэми Пэйн) [2013, Драма, экранизация, HDTVRip-AVC 1080p] [DD5.1] [MVO] [Байбако] торрент без регистрации

 
Статистика раздачи
Размер:  22,46 GB   |    Скачан:  139 раз
Сидов:  1  [  0 KB/s  ]  
 
Автор Сообщение

Nikolai.Baranov

[] 




Белая королева / The White Queen




Год выпуска: 2013
Выпущено: Великобритания, BBC Drama Productions, BNP Paribas Fortis Film Fund, Company Pictures
Жанр: Драма, экранизация
Продолжительность: 00:58:00
Сезон: 1
Серия: 1-10
Количество серий в сезоне: 10
Перевод: Янина Галицкая
Озвучка:Профессиональная многоголосая закадровая(Байбако)Светлана Доманова, Лира Грим, Артемий Мирон и Виталий Ткаченко
Субтитры: Русские



Режиссер: Колин Тиг, Джеймс Кент, Джэми Пэйн

В ролях: Фей Марсей, Джулиет Обри, Анайрин Барнард, Ребекка Фергюсон, Джеймс Фрейн, Кэролайн Гудолл, Аманда Хейл, Макс Айронс, Бен Лэмб


История трех разных, и вместе с тем одинаково амбициозных женщин, стремящихся добиться власти любыми способами — это Елизавета Вудвиль (Ребекка Фергюсон), Маргарита Бофорт (Аманда Хейл) и Энн Невилл (Фэй Марсей). Сериал снят по мотивам бестселлера Филиппы Грегори «Белая королева».

Качество : HDTVRip-AVC 1080p
Формат: MPEG-4
Видео кодек: H264
Видео: 5218Кбит/сек,1920х1080(16.9),в 25.000кадр/сек,AVC(Baseline@L5.0)(1Ref Frames)
Аудио кодек: AAC
Аудио Russian Dolby Digital 5.1:259Кбит/сек,44.1КГц,6каналов,AAC,(Version4)(LC)


Звуковая дорожка сделана путем наложения чистого голоса озвучивателей на центральный канал оригинальной дорожки. Качество идентично звуковой дорожке.



General
Полное имя : D:\И С Т О Р И Ч Е С К И Е\Белая королева\The_White_Queen_2013_S01_RUS[BaibaKo.tv]_DD5.1_x264_Nikolai.Baranov_HDTVRip-AVC_(1080p)\The_White_Queen_2013_S01E01_RUS[BaibaKo.tv]_DD5.1_x264_Nikolai.Baranov_HDTVRip-AVC_(1080p).mp4
Формат : MPEG-4
Профиль формата : Base Media
Идентификатор кодека : isom
Размер файла : 2.24 GiB
Продолжительность : 58mn 33s
Режим общего битрейта : Variable
Общий поток : 5 481 Kbps
Название фильма : BaibaKo.tv presents - Белая королева 1x01
Дата кодирования : UTC 2013-07-02 16:38:35
Дата пометки : UTC 2013-07-02 16:38:35
Программа кодирования : Lavf51.12.1

Video
Идентификатор : 1
Формат : AVC
Формат/Информация : Advanced Video Codec
Профиль формата : Baseline@L4.0
Параметр CABAC формата : No
Параметр ReFrames формата : 1 frame
Параметр GOP формата : M=1, N=12
Идентификатор кодека : avc1
Идентификатор кодека/Информация : Advanced Video Coding
Продолжительность : 58mn 32s
Вид битрейта : Variable
Битрейт : 5 218 Kbps
Максимальный битрейт : 7 500 Kbps
Ширина : 1 920 pixels
Высота : 1 080 pixels
Соотношение сторон : 16:9
Режим частоты кадров : Constant
Частота кадров : 25.000 fps
Частота кадров в оригинале : 24.000 fps
Цветовое пространство : YUV
Субдискретизация насыщенности : 4:2:0
Битовая глубина : 8 bits
Тип развёртки : Progressive
Бит/(Пиксели*Кадры) : 0.101
Размер потока : 2.13 GiB (95%)
Язык : English
Дата кодирования : UTC 2013-07-02 16:38:35
Дата пометки : UTC 2013-07-02 16:38:35

Audio
Идентификатор : 2
Формат : AAC
Формат/Информация : Advanced Audio Codec
Профиль формата : LC
Идентификатор кодека : 40
Продолжительность : 58mn 33s
Вид битрейта : Variable
Битрейт : 259 Kbps
Каналы : 6 channels
Расположение каналов : Front: L C R, Side: L R, LFE
Частота : 44.1 KHz
Метод сжатия : Lossy
Размер потока : 108 MiB (5%)
Язык : Russian
Дата кодирования : UTC 2013-07-02 16:38:35
Дата пометки : UTC 2013-07-02 16:38:35










1. Открыть торрент
2. Снять галки с тех файлов торрента, которые мы не хотим закачивать. Оставляем только на нужных нам файлах (файле).
3. Нажать О.К.

В клиенте utorrent

Инструкция

1) Открыть торрент


2) Снять галки с тех файлов торрента, которые мы не хотим закачивать:

* либо вручную, снимая с каждого файла галку( скрин №1)
* либо, нажав кнопку "Снять метки (Select None)", сняв сразу со всех файлов(скрин №2)
№1

№2

Оставляем только на нужных нам файлах (файле).

3)Нажать О.К


Внимание!!! 23.08. 2013. РАЗДАЧА ОБНОВЛЕНА.ОБНОВИТЕ ТОРЕНТ ФАЙЛ.ПРИЯТНОГО ПРОСМОТРА.

Релиз от: Nikolai.Baranov










Скачать Белая.королева.The.White.Queen.(.Колин.Тиг.Джеймс.Кент.Джэми.Пэйн).(сезон.1.серия.1-10.из.10).(Колин.Тиг.Джеймс.Кент.Джэми.Пэйн).[2013.Драма.экранизация.HDTVRip-AVC.1080p].[DD5.1].[MVO].[Байбако].torrent без регистрации
Золото ЗОЛОТАЯ РАЗДАЧА! СКАЧАННОЕ НЕ ЗАСЧИТЫВАЕТСЯ! Золото
Дата: Зарегистрирован   [ Тип: внутренний ] Как тут cкачать?
MAGNET ссылка
MAGNET ссылка


Скачать .torrent

59 KB

Статус: проверено DHT
Скачан: торрент - 139 раз, раздача полностью - 7 раз
Размер: 22,46 GB
Оценка:  - (Голосов: 0)
Поблагодарили: 2
Поделиться ссылкой на эту раздачу с друзьями:
В контактеFacebookОдноклассникиTwitterLivejournalМой МирLiveinternet
 

 
Показать сообщения:    


Вы не можете начинать темы
Вы не можете отвечать на сообщения
Вы не можете редактировать свои сообщения
Вы не можете удалять свои сообщения
Вы не можете голосовать в опросах
Вы не можете прикреплять файлы к сообщениям
Вы можете скачивать файлы