Loading...
Error

Скачать Приключения частного детектива / Adventures of a Private Eye (Стэнли А. Лонг) [1976, комедия, криминал, DVDRip] [AVO] торрент без регистрации

 
Статистика раздачи
Размер:  1,39 GB   |    Скачан:  109 раз
Сидов:  1  [  0 KB/s  ]  
 
Автор Сообщение

Marsianka

[] 

Информация о фильме
Название: Приключения частного детектива
Оригинальное название: Adventures of a Private Eye
Год выхода: 01:32:00
Жанр: комедия, криминал,
Режиссер: Стэнли А. Лонг / Stanley A. Long
В ролях:
Кристофер Нил, Сьюзи Кендалл, Гарри Х. Корбет, Диана Дорс
Фред Эмни, Лиз Фрайзер, Айрин Хэндл' Йен Лавендер, Джулиан Орхард, Джон Пертуи

О фильме:
Молодой человек, выдавая себя за частного детектива, ищет сексуальных приключений.





Страна: Великобритания
Продолжительность: 01:32:00
Перевод: Авторский одноголосый

Файл
Кодек: XviD
Качество: DVDRip
Видео: 7704x384 (1.83:1), 25 fps, XviD build 47 ~1941 kbps avg, 0.29 bit/pixel
Звук:
1. AC3 48 kHz; 2/0 (L,R) ch; 192.00 kbps. Rus.
Субтитры: Нет

Семпл

Общее
Полное имя : W:KinoПриключения частного детектива - Adventures of a Private Eye.avi
Формат : AVI
Формат/Информация : Audio Video Interleave
Размер файла : 1,39 Гбайт
Продолжительность : 1 ч. 32 м.
Общий поток : 2143 Кбит/сек
Программа кодирования : VirtualDubMod 1.5.10.2 (build 2540/release)
Библиотека кодирования : VirtualDubMod build 2540/release

Видео
Идентификатор : 0
Формат : MPEG-4 Visual
Профиль формата : Advanced Simple@L5
Параметр BVOP формата : 1
Параметр QPel формата : Нет
Параметр GMC формата : Без точки перехода
Параметр матрицы формата : Выборочная
Идентификатор кодека : XVID
Идентификатор кодека/Подсказка : XviD
Продолжительность : 1 ч. 32 м.
Битрейт : 1941 Кбит/сек
Ширина : 704 пикселя
Высота : 384 пикселя
Соотношение сторон : 1,85:1
Частота кадров : 25,000 кадров/сек
Цветовое пространство : YUV
Субдискретизация насыщенности : 4:2:0
Битовая глубина : 8 бит
Тип развёртки : Прогрессивная
Метод сжатия : С потерями
Бит/(Пиксели*Кадры) : 0.287
Размер потока : 1,26 Гбайт (91%)
Библиотека кодирования : XviD 1.2.0.dev47 (UTC 2006-11-01)

Аудио
Идентификатор : 1
Формат : AC-3
Формат/Информация : Audio Coding 3
Расширение режима : CM (complete main)
Параметр Endianness формата : Big
Идентификатор кодека : 2000
Продолжительность : 1 ч. 32 м.
Вид битрейта : Постоянный
Битрейт : 192 Кбит/сек
Каналы : 2 канала
Расположение каналов : Front: L R
Частота : 48,0 КГц
Битовая глубина : 16 бит
Метод сжатия : С потерями
Размер потока : 127 Мбайт (9%)
Выравнивание : Разделение по промежуткам
Продолжительность промежутка : 40 мс. (1,00 видеокадр)
Время предзагрузки промежутка : 500 мс.



Скачать Приключения.частного.детектива.Adventures.of.a.Private.Eye.(Стэнли.А.Лонг).[1976.комедия.криминал.DVDRip].[AVO].torrent без регистрации
Золото ЗОЛОТАЯ РАЗДАЧА! СКАЧАННОЕ НЕ ЗАСЧИТЫВАЕТСЯ! Золото
Дата: Зарегистрирован   [ Тип: внутренний ] Как тут cкачать?
MAGNET ссылка
MAGNET ссылка


Скачать .torrent

14 KB

Статус: проверено DHT
Скачан: торрент - 109 раз, раздача полностью - 36 раз
Размер: 1,39 GB
Оценка:  - (Голосов: 0)
Поблагодарили: 4
Поделиться ссылкой на эту раздачу с друзьями:
В контактеFacebookОдноклассникиTwitterLivejournalМой МирLiveinternet
 

 
Показать сообщения:    


Вы не можете начинать темы
Вы не можете отвечать на сообщения
Вы не можете редактировать свои сообщения
Вы не можете удалять свои сообщения
Вы не можете голосовать в опросах
Вы не можете прикреплять файлы к сообщениям
Вы можете скачивать файлы