Loading...
Error

Скачать Танцы на грани / Танцы на краю / Dancing on the Edge (сезон 01 + Спецэпизод) (Стивен Полякофф) [2013, драма, HDTVRip, PDTVRip] [720р] [MVO (Baibako)] торрент без регистрации

 
Статистика раздачи
Размер:  7,3 GB   |    Скачан:  128 раз

Полного источника не было: 28 минут

 
Автор Сообщение

МихаНЕзатор

[] 

Название: Танцы на грани / Танцы на краю
Оригинальное название: Dancing on the Edge
Год выпуска: 2013
Жанр: драма
Режиссер: Стивен Полякофф

В ролях: Чиветель Эджиофор, Мэттью Гуд, Энджел Колби, Аллан Кордунер, Джон Гудмен, Дженна-Луиза Коулман, Джанет Монтгомери, Энтони Хэд, Вунми Моссаку, Кэролайн Квентин, Том Хьюз

Описание: Лондон в начале 1930-х годов на фоне финансового кризиса и до начала Второй мировой войны переживает подъём индустрии развлечений: фильмы, журналы и музыка приобретают большое значение в обществе и джаз берет мир штурмом. Музыкальный журналист Стэнли Митчелл помогает восхождению к славе джаз-бэнда Луи Лестера. Коллектив буквально из подвала попадает в прославленный Отель "Империал". Пожилая аудитория воспринимает в штыки и сам джаз, и темнокожих музыкантов. А молодые аристократы наоборот приветствуют всё новое и необычное и приглашают музыкантов на частную вечеринку



Страна: Великобритания
Продолжительность: ~ 01:30:00 + 05 х ~ 01:00:00
Перевод: Профессиональный (многоголосый, закадровый) - Baibako
Субтитры: Русские (на песни)

Перевод: Вячеслав Лоев
Озвучка: Владимир Курдов, Светлана Доманова, Татьяна Оболевич, Олекса Мельник
Обложка: Татьяна Saavick

Качество: HDTVRip 720р
Формат: МКV
Видео: MPEG-4 AVC, ~ 1730 Кбит/с, 1280x720
Аудио rus: АС3, 6 ch, 384 Кбит/с
Аудио eng: АС3, 6 ch, 384 Кбит/с

Релиз от:
Формат : Matroska
Размер файла : 1,61 Гбайт
Продолжительность : 1 ч. 30 м.
Общий поток : 2547 Кбит/сек
Название фильма : BaibaKo.tv presents - Танцы на краю 1х01
Дата кодирования : UTC 2010-02-22 21:41:31
Программа кодирования : mkvmerge v5.9.0 ('On The Loose') built on Dec 9 2012 15:37:01
Библиотека кодирования : libebml v1.3.0 + libmatroska v1.4.0

Видео
Идентификатор : 1
Формат : AVC
Формат/Информация : Advanced Video Codec
Профиль формата : High@L4.1
Параметр CABAC формата : Да
Параметр ReFrames формата : 5 кадров
Идентификатор кодека : V_MPEG4/ISO/AVC
Продолжительность : 1 ч. 30 м.
Битрейт : 1728 Кбит/сек
Ширина : 1280 пикс.
Высота : 720 пикс.
Соотношение сторон : 16:9
Частота кадров : 25,000 кадр/сек
Цветовое пространство : YUV
Подвыборка цветности : 4:2:0
Битовая глубина : 8 бит
Тип развёртки : Прогрессивная
Бит/(Пиксели*Кадры) : 0.075
Размер потока : 1,09 Гбайт (68%)
Библиотека кодирования : x264 core 129 r2245 bc13772
Настройки программы : cabac=1 / ref=5 / deblock=1:0:0 / analyse=0x3:0x113 / me=umh / subme=8 / psy=1 / psy_rd=1.00:0.00 / mixed_ref=1 / me_range=16 / chroma_me=1 / trellis=1 / 8x8dct=1 / cqm=0 / deadzone=21,11 / fast_pskip=1 / chroma_qp_offset=-2 / threads=12 / lookahead_threads=2 / sliced_threads=0 / nr=0 / decimate=1 / interlaced=0 / bluray_compat=0 / constrained_intra=0 / bframes=3 / b_pyramid=2 / b_adapt=2 / b_bias=0 / direct=3 / weightb=1 / open_gop=0 / weightp=2 / keyint=250 / keyint_min=25 / scenecut=40 / intra_refresh=0 / rc_lookahead=50 / rc=crf / mbtree=1 / crf=19.0 / qcomp=0.60 / qpmin=0 / qpmax=69 / qpstep=4 / ip_ratio=1.40 / aq=1:1.00
Язык : English

Аудио #1
Идентификатор : 2
Формат : AC-3
Формат/Информация : Audio Coding 3
Расширение режима : CM (complete main)
Идентификатор кодека : A_AC3
Продолжительность : 1 ч. 30 м.
Вид битрейта : Постоянный
Битрейт : 384 Кбит/сек
Каналы : 6 каналов
Расположение каналов : Front: L C R, Side: L R, LFE
Частота : 48,0 КГц
Битовая глубина : 16 бит
Метод сжатия : С потерями
Размер потока : 249 Мбайт (15%)
Заголовок : Rus BaibaKo.tv DD5.1
Язык : Russian

Аудио #2
Идентификатор : 3
Формат : AC-3
Формат/Информация : Audio Coding 3
Расширение режима : CM (complete main)
Идентификатор кодека : A_AC3
Продолжительность : 1 ч. 30 м.
Вид битрейта : Постоянный
Битрейт : 384 Кбит/сек
Каналы : 6 каналов
Расположение каналов : Front: L C R, Side: L R, LFE
Частота : 48,0 КГц
Битовая глубина : 16 бит
Метод сжатия : С потерями
Размер потока : 249 Мбайт (15%)
Заголовок : Eng
Язык : English

Текст
Идентификатор : 4
Формат : UTF-8
Идентификатор кодека : S_TEXT/UTF8
Идентификатор кодека/Информация : UTF-8 Plain Text
Заголовок : Rus Songs
Язык : Russian

Качество: PDTVRip
Формат: AVI
Видео: XviD, 608x336, ~1450 kbps
Аудио rus: MP3, 2 ch, 192 kbps
Аудио eng: MP3, 2 ch, 128 kbps




Скачать Танцы.на.грани.Танцы.на.краю.Dancing.on.the.Edge.(сезон.01.+.Спецэпизод).(Стивен.Полякофф).[2013.драма.HDTVRip.PDTVRip].[720р].[MVO.(Baibako)].torrent без регистрации
Золото ЗОЛОТАЯ РАЗДАЧА! СКАЧАННОЕ НЕ ЗАСЧИТЫВАЕТСЯ! Золото
Дата: Зарегистрирован   [ Тип: внутренний ] Как тут cкачать?
MAGNET ссылка
MAGNET ссылка


Скачать .torrent

37 KB

Статус: проверено DHT
Скачан: торрент - 128 раз, раздача полностью - 1 раз
Размер: 7,3 GB
Оценка:  - (Голосов: 0)
Поблагодарили: 0
Поделиться ссылкой на эту раздачу с друзьями:
В контактеFacebookОдноклассникиTwitterLivejournalМой МирLiveinternet
 

 
Показать сообщения:    


Вы не можете начинать темы
Вы не можете отвечать на сообщения
Вы не можете редактировать свои сообщения
Вы не можете удалять свои сообщения
Вы не можете голосовать в опросах
Вы не можете прикреплять файлы к сообщениям
Вы можете скачивать файлы