Loading...
Error

Скачать Робокоп 2 / RoboCop 2 (Ирвин Кершнер / Irvin Kershner) [1990, боевик, фантастика, триллер, криминал, BDRip] [MVO] (СТС) + [AVO] (А.Гаврилов) торрент без регистрации

 
Статистика раздачи
Размер:  1,76 GB   |    Скачан:  174 раза
Сидов:  2  [  0 KB/s  ]  
 
Автор Сообщение

leon030982

[] 

Робокоп 2 / RoboCop 2


Год выпуска: 1990
Выпущено: США | Orion Pictures Corporation
Жанр: боевик, фантастика, триллер, криминал
Продолжительность: 01:56:40
Перевод 1: Профессиональный (многоголосный, закадровый) [СТС]
Перевод 2: Авторский (одноголосный, закадровый) [А.Гаврилов]
Субтитры: нет
Режиссер: Ирвин Кершнер / Irvin Kershner
В ролях: Питер Уэллер, Белинда Бауэр, Джон Гловер, Марио Мачадо, Leeza Gibbons, Джон Ингл, Том Нунен, Роджер Аарон Браун, Гэбриел Дэймон, Марк Ролстон
Описание: Наркодельцы стремятся захватить власть в городе, подчинить органы управления и поработить жителей. Робот-полицейский — единственная надежда в борьбе с распоясавшимися негодяями. Но бандиты, зная о его существовании, создают свою машину — киборга, при помощи которого они надеются избавиться от кибернетического блюстителя порядка, и установить тотальный контроль…

Качество: BDRip [Исх.CHDBits / Blu-ray CEE / 1080p]
Формат: AVI
Видео кодек: XviD
Аудио кодек: AC3
Видео: 720x384 (1.88:1), 23.976 fps, XviD MPEG-4 ~1766 kbps avg, 0.27 bit/pixel
Аудио #1: 48 kHz, AC3 Dolby Digital, 2/0 (L,R) ch, ~192.00 kbps avg [СТС]
Аудио #2: 48 kHz, AC3 Dolby Digital, 2/0 (L,R) ch, ~192.00 kbps avg [А.Гаврилов]

E:INTERNETRobocop 2.1990.BDRip.[MVO CTC] + [AVO Gavrilov].avi
General
Complete name : E:INTERNETRobocop 2.1990.BDRip.[MVO CTC] + [AVO Gavrilov].avi
Format : AVI
Format/Info : Audio Video Interleave
File size : 1.76 GiB
Duration : 1h 56mn
Overall bit rate : 2 165 Kbps
Writing application : VirtualDubMod 1.5.10.3 (build 2550/release)
Writing library : VirtualDubMod build 2550/release
Video #0
ID : 0
Format : MPEG-4 Visual
Format profile : Advanced Simple@L5
Format settings, BVOP : 2
Format settings, QPel : No
Format settings, GMC : No warppoints
Format settings, Matrix : Custom
Muxing mode : Packed bitstream
Codec ID : XVID
Codec ID/Hint : XviD
Duration : 1h 56mn
Bit rate : 1 767 Kbps
Width : 720 pixels
Height : 384 pixels
Display aspect ratio : 1.85:1
Frame rate : 23.976 fps
Color space : YUV
Chroma subsampling : 4:2:0
Bit depth : 8 bits
Scan type : Progressive
Compression mode : Lossy
Bits/(Pixel*Frame) : 0.267
Stream size : 1.44 GiB (82%)
Writing library : XviD
Audio #1
ID : 1
Format : AC-3
Format/Info : Audio Coding 3
Mode extension : CM (complete main)
Format settings, Endianness : Big
Codec ID : 2000
Duration : 1h 56mn
Bit rate mode : Constant
Bit rate : 192 Kbps
Channel(s) : 2 channels
Channel positions : Front: L R
Sampling rate : 48.0 KHz
Bit depth : 16 bits
Compression mode : Lossy
Stream size : 160 MiB (9%)
Alignment : Split accross interleaves
Interleave, duration : 42 ms (1.00 video frame)
Interleave, preload duration : 500 ms
Audio #2
ID : 2
Format : AC-3
Format/Info : Audio Coding 3
Mode extension : CM (complete main)
Format settings, Endianness : Big
Codec ID : 2000
Duration : 1h 56mn
Bit rate mode : Constant
Bit rate : 192 Kbps
Channel(s) : 2 channels
Channel positions : Front: L R
Sampling rate : 48.0 KHz
Bit depth : 16 bits
Compression mode : Lossy
Stream size : 160 MiB (9%)
Alignment : Split accross interleaves
Interleave, duration : 42 ms (1.00 video frame)
Interleave, preload duration : 500 ms



Скачать Робокоп.2.RoboCop.2.(Ирвин.Кершнер.Irvin.Kershner).[1990.боевик.фантастика.триллер.криминал.BDRip].[MVO].(СТС).+.[AVO].(А.Гаврилов).torrent без регистрации
Золото ЗОЛОТАЯ РАЗДАЧА! СКАЧАННОЕ НЕ ЗАСЧИТЫВАЕТСЯ! Золото
Дата: Зарегистрирован   [ Тип: внутренний ] Как тут cкачать?
MAGNET ссылка
MAGNET ссылка


Скачать .torrent

18 KB

Статус: проверено DHT
Скачан: торрент - 174 раз, раздача полностью - 80 раз
Размер: 1,76 GB
Оценка:  5 (Голосов: 1)
Поблагодарили: 5
Поделиться ссылкой на эту раздачу с друзьями:
В контактеFacebookОдноклассникиTwitterLivejournalМой МирLiveinternet
 

 
Показать сообщения:    


Вы не можете начинать темы
Вы не можете отвечать на сообщения
Вы не можете редактировать свои сообщения
Вы не можете удалять свои сообщения
Вы не можете голосовать в опросах
Вы не можете прикреплять файлы к сообщениям
Вы можете скачивать файлы