Loading...
Error

Скачать Жар тела / Body Heat (Лоуренс Кэздан) [1981, триллер, драма, криминал, BDRip-AVC] [AVO]+[Оригинал] торрент без регистрации

 
Статистика раздачи
Размер:  1,45 GB   |    Скачан:  118 раз
Сидов:  1  [  0 KB/s  ]  
 
Автор Сообщение

Marsianka

[] 

Жар тела / Body Heat (1981) BDRip-AVC

Информация о фильме
Название: Жар тела
Оригинальное название: Body Heat
Год выхода: 1981
Жанр: триллер, драма, криминал
Режиссер: Лоуренс Кэздан

В ролях: Уильям Хёрт, Кэтлин Тёрнер, Ричард Кренна, Тед Дэнсон, Дж.А. Престон, Микки Рурк, Ким Зиммер, Джейн Хэлларен, Лэнна Сондерс, Карола МакГиннес...

О фильме: Скромный адвокат из Флориды, Нед Расин, вел тихую размеренную жизнь, пока не повстречал прекрасную незнакомку в белом «роковую» блондинку Мэтти Уолкер, замужем за богатым и преуспевающим бизнесменом.

Нед понимает, что перед ним женщина, за которую можно убить. Именно так он и поступает, когда его возлюбленная предлагает ему убить ее мужа в обмен на любовь и состояние. Но все далеко не так просто, как кажется на первый взгляд



Страна: США
Продолжительность: 01:53:12
Перевод: Авторский (одноголосый закадровый) А. Гаврилов, Оригинал (Английский)

Файл
Кодек: x.264
Качество: BDRip-AVC
Видео: 1024x576 (16:9), 23,976 fps, 1386 kbps, 0.098 bit/pixel
Аудио #1: 48 kHz, AC3 Dolby Digital, 6 ch, ~320.00 kbps (Русский)
Аудио #2: 48 kHz, AC3 Dolby Digital, 2 ch, ~128.00 kbps (Английский)

&
Общее
Уникальный идентификатор : 195635205706615725164362138203301618832 (0x932DF8577817F88E8DCE35A685942490)
Полное имя : D:Body Heat.1981.BDRip-AVC.mkv
Формат : Matroska
Версия формата : Version 4 / Version 2
Размер файла : 1,45 Гбайт
Продолжительность : 1 ч. 53 м.
Общий поток : 1836 Кбит/сек
Название фильма : Жар тела / Body Heat (1981) BDRip-AVC rip by Rulya74
Дата кодирования : UTC 2013-07-04 05:18:45
Программа кодирования : mkvmerge v6.2.0 ('Promised Land') built on Apr 28 2013 12:22:01
Библиотека кодирования : libebml v1.3.0 + libmatroska v1.4.0

Видео
Идентификатор : 1
Формат : AVC
Формат/Информация : Advanced Video Codec
Профиль формата : High@L4.1
Параметр CABAC формата : Да
Параметр ReFrames формата : 10 кадров
Идентификатор кодека : V_MPEG4/ISO/AVC
Продолжительность : 1 ч. 53 м.
Битрейт : 1386 Кбит/сек
Ширина : 1024 пикселя
Высота : 576 пикселей
Соотношение сторон : 16:9
Режим частоты кадров : Постоянный
Частота кадров : 23,976 кадра/сек
Цветовое пространство : YUV
Субдискретизация насыщенности : 4:2:0
Битовая глубина : 8 бит
Тип развёртки : Прогрессивная
Бит/(Пиксели*Кадры) : 0.098
Размер потока : 1,07 Гбайт (74%)
Библиотека кодирования : x264 core 133 r2334 a3ac64b
Настройки программы : cabac=1 / ref=10 / deblock=1:-1:-1 / analyse=0x3:0x113 / me=umh / subme=10 / psy=1 / psy_rd=1.14:0.04 / mixed_ref=1 / me_range=32 / chroma_me=1 / trellis=2 / 8x8dct=1 / cqm=0 / deadzone=21,11 / fast_pskip=0 / chroma_qp_offset=-3 / threads=12 / lookahead_threads=1 / sliced_threads=0 / nr=0 / decimate=1 / interlaced=0 / bluray_compat=0 / constrained_intra=0 / bframes=6 / b_pyramid=2 / b_adapt=1 / b_bias=0 / direct=3 / weightb=1 / open_gop=0 / weightp=2 / keyint=240 / keyint_min=23 / scenecut=40 / intra_refresh=0 / rc_lookahead=40 / rc=2pass / mbtree=1 / bitrate=1386 / ratetol=1.0 / qcomp=0.60 / qpmin=0 / qpmax=69 / qpstep=4 / cplxblur=20.0 / qblur=0.5 / vbv_maxrate=62500 / vbv_bufsize=78125 / nal_hrd=none / ip_ratio=1.40 / aq=1:1.00
Default : Да
Forced : Нет

Аудио #1
Идентификатор : 2
Формат : AC-3
Формат/Информация : Audio Coding 3
Расширение режима : CM (complete main)
Параметр Endianness формата : Big
Идентификатор кодека : A_AC3
Продолжительность : 1 ч. 53 м.
Вид битрейта : Постоянный
Битрейт : 320 Кбит/сек
Каналы : 6 каналов
Расположение каналов : Front: L C R, Side: L R, LFE
Частота : 48,0 КГц
Битовая глубина : 16 бит
Метод сжатия : С потерями
Размер потока : 259 Мбайт (17%)
Заголовок : Авторский (А. Гаврилов)
Язык : Russian
Default : Да
Forced : Нет

Аудио #2
Идентификатор : 3
Формат : AC-3
Формат/Информация : Audio Coding 3
Расширение режима : CM (complete main)
Параметр Endianness формата : Big
Идентификатор кодека : A_AC3
Продолжительность : 1 ч. 53 м.
Вид битрейта : Постоянный
Битрейт : 128 Кбит/сек
Каналы : 2 канала
Расположение каналов : Front: L R
Частота : 48,0 КГц
Битовая глубина : 16 бит
Метод сжатия : С потерями
Размер потока : 104 Мбайт (7%)
Заголовок : Оригинал
Язык : English
Default : Нет
Forced : Нет



Скачать Жар.тела.Body.Heat.(Лоуренс.Кэздан).[1981.триллер.драма.криминал.BDRip-AVC].[AVO]+[Оригинал].torrent без регистрации
Золото ЗОЛОТАЯ РАЗДАЧА! СКАЧАННОЕ НЕ ЗАСЧИТЫВАЕТСЯ! Золото
Дата: Зарегистрирован   [ Тип: внутренний ] Как тут cкачать?
MAGNET ссылка
MAGNET ссылка


Скачать .torrent

15 KB

Статус: проверено DHT
Скачан: торрент - 118 раз, раздача полностью - 73 раз
Размер: 1,45 GB
Оценка:  - (Голосов: 0)
Поблагодарили: 2
Поделиться ссылкой на эту раздачу с друзьями:
В контактеFacebookОдноклассникиTwitterLivejournalМой МирLiveinternet
 

 
Показать сообщения:    


Вы не можете начинать темы
Вы не можете отвечать на сообщения
Вы не можете редактировать свои сообщения
Вы не можете удалять свои сообщения
Вы не можете голосовать в опросах
Вы не можете прикреплять файлы к сообщениям
Вы можете скачивать файлы