Loading...
Error

Скачать Вся королевская рать / All the King's Men (Стивен Зеллиан) [2006, триллер, драма, BDRip-AVC] [MVO]+[Sub] торрент без регистрации

 
Статистика раздачи
Размер:  2,91 GB   |    Скачан:  106 раз
Сидов:  1  [  0 KB/s  ]  
 
Автор Сообщение

Marsianka

[] 

Год выпуска: 2006
Производство: США, Германия / Columbia Pictures Corporation, Phoenix Pictures, Relativity Media, Rising Star, VIP 3 Medienfonds, VIP 4 Medienfonds, Gray Matter FX, Modern Videofilm Inc.
Жанр: триллер, драма
Продолжительность: 02:08:03
Перевод: Профессиональный (многоголосый закадровый)
Субтитры: Английские, русские |отключаемые|
Навигация по главам: Есть
Режиссер: Стивен Зеллиан / Steven Zaillian

В ролях: Шон Пенн, Джуд Лоу, Энтони Хопкинс, Кейт Уинслет, Марк Руффало, Патришия Кларксон, Джеймс Гандолфини, Джеки Эрл Хейли, Кэти Бейкер, Талия Бэлсом, Трэвис Шампань, Фредерик Форрест, Пол Десмонд, Кевин Данн, Томас МакКарти, Гленн Моршауэр, Джэй Паттерсон, Майкл Кэвано, Кэролайн Лагерфелт, Вэлери Стодхилл

О фильме:
Губернатор Вилли Старк был очень популярен благодаря своей порядочности и близости к народу. Он начал карьеру с самых низов, обличая перед народом глупость и коррумпированность чиновников. Это был честный работяга, служащий идеалам справедливости, пока в какой-то момент политика не испачкала его и не перековала по-своему. Компромисс со своей совестью, маленькая взятка и от былого идеалиста не осталось следа. Власть, медные трубы то испытание, которое не может пройти ни один человек. Через какое-то время самый порядочный человек, пришедший во власть потеряет себя. Искушения огромные, а человек слаб. Фильм экранизирует роман Роберта Пена Уоррена, удостоенный Пулитцеровской премии. Прототип главного героя реальный губернатор Луизианы Хьюи Лори.

Бюджет: $55 000 000

Качество: BDRip-AVC [BDRemux]
Формат: MKV
Видео: х.264, 1056x572 (1,85:1), 23,976 fps, 2358 Кbps, 0.163 bit/pixel
Аудио#1: 48 kHz, AC3 Dolby Digital, 3/2 (L,C,R,l,r) + LFE ch, 448.00 kbps | RUS
Аудио#2: 48 kHz, AC3 Dolby Digital, 3/2 (L,C,R,l,r) + LFE ch, 448.00 kbps | ENG

Релиз от:
Автор рипа: potroks

Общее
Уникальный идентификатор : 245021957275594292489741098325647877479 (0xB85583303F47DCE3BBBA737CE264E567)
Полное имя : Vsja.Korolevskaja.Rat'.2006.P.BDRip.x264.potroks.mkv
Формат : Matroska
Версия формата : Version 2
Размер файла : 2,91 Гбайт
Продолжительность : 2 ч. 8 м.
Общий поток : 3255 Кбит/сек
Название фильма : -=POTROKS=-
Дата кодирования : UTC 2013-06-30 13:31:57
Программа кодирования : mkvmerge v5.9.0 ('On The Loose') built on Dec 15 2012 16:39:58
Библиотека кодирования : libebml v1.3.0 + libmatroska v1.4.0

Видео
Идентификатор : 1
Формат : AVC
Формат/Информация : Advanced Video Codec
Профиль формата : High@L4.1
Параметр CABAC формата : Да
Параметр ReFrames формата : 12 кадров
Идентификатор кодека : V_MPEG4/ISO/AVC
Продолжительность : 2 ч. 8 м.
Битрейт : 2358 Кбит/сек
Ширина : 1056 пикселей
Высота : 572 пикселя
Соотношение сторон : 1,85:1
Режим частоты кадров : Постоянный
Частота кадров : 23,976 кадра/сек
Цветовое пространство : YUV
Субдискретизация насыщенности : 4:2:0
Битовая глубина : 8 бит
Тип развёртки : Прогрессивная
Бит/(Пиксели*Кадры) : 0.163
Размер потока : 2,05 Гбайт (70%)
Заголовок : All the King's Men
Библиотека кодирования : x264 core 125 r2208 d9d2288
Настройки программы : cabac=1 / ref=12 / deblock=1:-3:-2 / analyse=0x3:0x133 / me=umh / subme=11 / psy=1 / psy_rd=1.02:0.03 / mixed_ref=1 / me_range=32 / chroma_me=1 / trellis=2 / 8x8dct=1 / cqm=0 / deadzone=21,11 / fast_pskip=0 / chroma_qp_offset=-3 / threads=9 / lookahead_threads=1 / sliced_threads=0 / nr=0 / decimate=1 / interlaced=0 / bluray_compat=0 / constrained_intra=0 / bframes=13 / b_pyramid=2 / b_adapt=2 / b_bias=0 / direct=3 / weightb=1 / open_gop=0 / weightp=2 / keyint=240 / keyint_min=23 / scenecut=40 / intra_refresh=0 / rc_lookahead=150 / rc=2pass / mbtree=1 / bitrate=2358 / ratetol=1.0 / qcomp=0.70 / qpmin=0 / qpmax=69 / qpstep=4 / cplxblur=20.0 / qblur=0.5 / vbv_maxrate=20000 / vbv_bufsize=25000 / nal_hrd=none / ip_ratio=1.35 / aq=1:0.80
Язык : English
Default : Да
Forced : Нет

Аудио #1
Идентификатор : 2
Формат : AC-3
Формат/Информация : Audio Coding 3
Расширение режима : CM (complete main)
Параметр Endianness формата : Big
Идентификатор кодека : A_AC3
Продолжительность : 2 ч. 8 м.
Вид битрейта : Постоянный
Битрейт : 448 Кбит/сек
Каналы : 6 каналов
Расположение каналов : Front: L C R, Side: L R, LFE
Частота : 48,0 КГц
Битовая глубина : 16 бит
Метод сжатия : С потерями
Размер потока : 410 Мбайт (14%)
Заголовок : MVO | DD 5.1 @ 448 kbps
Язык : Russian
Default : Да
Forced : Да

Аудио #2
Идентификатор : 3
Формат : AC-3
Формат/Информация : Audio Coding 3
Расширение режима : CM (complete main)
Параметр Endianness формата : Big
Идентификатор кодека : A_AC3
Продолжительность : 2 ч. 8 м.
Вид битрейта : Постоянный
Битрейт : 448 Кбит/сек
Каналы : 6 каналов
Расположение каналов : Front: L C R, Side: L R, LFE
Частота : 48,0 КГц
Битовая глубина : 16 бит
Метод сжатия : С потерями
Размер потока : 410 Мбайт (14%)
Заголовок : Original | DD 5.1 @ 448 kbps
Язык : English
Default : Нет
Forced : Нет

Текст #1
Идентификатор : 4
Формат : UTF-8
Идентификатор кодека : S_TEXT/UTF8
Идентификатор кодека/Информация : UTF-8 Plain Text
Язык : Russian
Default : Да
Forced : Нет

Текст #2
Идентификатор : 5
Формат : UTF-8
Идентификатор кодека : S_TEXT/UTF8
Идентификатор кодека/Информация : UTF-8 Plain Text
Язык : English
Default : Нет
Forced : Нет

Меню
00:00:00.000 : en:Chapter 01
00:08:28.549 : en:Chapter 02
00:18:50.170 : en:Chapter 03
00:26:03.436 : en:Chapter 04
00:36:35.193 : en:Chapter 05
00:43:23.100 : en:Chapter 06
00:55:10.640 : en:Chapter 07
01:02:39.171 : en:Chapter 08
01:11:32.746 : en:Chapter 09
01:18:22.363 : en:Chapter 10
01:24:19.054 : en:Chapter 11
01:30:12.907 : en:Chapter 12
01:37:48.487 : en:Chapter 13
01:45:25.485 : en:Chapter 14
01:49:01.326 : en:Chapter 15
01:56:47.667 : en:Chapter 16
02:01:25.374 : en:Chapter 17
x264 [info]: frame I:1368 Avg QP:16.87 size: 72468
x264 [info]: frame P:35658 Avg QP:18.05 size: 28221
x264 [info]: frame B:147198 Avg QP:20.88 size: 7869
x264 [info]: consecutive B-frames: 1.3% 1.3% 5.1% 15.2% 11.7% 53.6% 5.0% 1.0% 1.6% 2.5% 0.5% 0.7% 0.3% 0.4%
x264 [info]: mb I I16..4: 12.7% 68.6% 18.7%
x264 [info]: mb P I16..4: 0.7% 6.8% 1.0% P16..4: 31.5% 35.3% 13.7% 1.9% 0.2% skip: 8.8%
x264 [info]: mb B I16..4: 0.1% 0.8% 0.1% B16..8: 31.7% 16.5% 2.5% direct: 4.4% skip:43.8% L0:42.4% L1:44.3% BI:13.4%
x264 [info]: 8x8 transform intra:78.0% inter:59.7%
x264 [info]: direct mvs spatial:98.0% temporal:2.0%
x264 [info]: coded y,uvDC,uvAC intra: 85.9% 70.7% 44.6% inter: 21.9% 12.9% 1.5%
x264 [info]: i16 v,h,dc,p: 56% 14% 6% 24%
x264 [info]: i8 v,h,dc,ddl,ddr,vr,hd,vl,hu: 9% 7% 5% 10% 15% 15% 13% 13% 13%
x264 [info]: i4 v,h,dc,ddl,ddr,vr,hd,vl,hu: 12% 8% 7% 9% 15% 14% 13% 11% 12%
x264 [info]: i8c dc,h,v,p: 46% 23% 18% 14%
x264 [info]: Weighted P-Frames: Y:4.6% UV:1.6%
x264 [info]: ref P L0: 41.3% 9.1% 18.6% 6.5% 6.2% 4.3% 4.2% 2.1% 2.2% 1.7% 1.9% 1.6% 0.2% 0.0%
x264 [info]: ref B L0: 71.2% 11.8% 5.7% 3.0% 2.3% 1.9% 1.5% 0.9% 0.8% 0.5% 0.2%
x264 [info]: ref B L1: 92.9% 7.1%
x264 [info]: kb/s:2356.91

x264 [total]: encoded 184224 frames, 4.87 fps, 2356.91 kb/s

TIME
------------------------------
Общее время кодирования: 15 hour 23 min 57 sec
Файл получился на: 2160.18 mb



Скачать Вся.королевская.рать.All.the.King's.Men.(Стивен.Зеллиан).[2006.триллер.драма.BDRip-AVC].[MVO]+[Sub].torrent без регистрации
Золото ЗОЛОТАЯ РАЗДАЧА! СКАЧАННОЕ НЕ ЗАСЧИТЫВАЕТСЯ! Золото
Дата: Зарегистрирован   [ Тип: внутренний ] Как тут cкачать?
MAGNET ссылка
MAGNET ссылка


Скачать .torrent

15 KB

Статус: проверено DHT
Скачан: торрент - 106 раз, раздача полностью - 13 раз
Размер: 2,91 GB
Оценка:  - (Голосов: 0)
Поблагодарили: 2
Поделиться ссылкой на эту раздачу с друзьями:
В контактеFacebookОдноклассникиTwitterLivejournalМой МирLiveinternet
 

 
Показать сообщения:    


Вы не можете начинать темы
Вы не можете отвечать на сообщения
Вы не можете редактировать свои сообщения
Вы не можете удалять свои сообщения
Вы не можете голосовать в опросах
Вы не можете прикреплять файлы к сообщениям
Вы можете скачивать файлы