Loading...
Error

Скачать Бонни и Клайд / Bonnie and Clyde (Артур Пенн / Arthur Penn) [1967, драма, криминал, биография, DVDRip] [DUB] (Варус Видео) торрент без регистрации

 
Статистика раздачи
Размер:  1,48 GB   |    Скачан:  114 раз
Сидов:  1  [  0 KB/s  ]  
 
Автор Сообщение

leon030982

[] 

Бонни и Клайд / Bonnie and Clyde

«Хроники короткой жизни самых печально известных преступников Америки.»



Год выхода: 1967
Жанр: драма, криминал, биография
Страна: США
Студия: Warner Brothers/Seven Arts, Tatira-Hiller Productions
Продолжительность: 01:50:45
Перевод: Профессиональный (дублированный) [Варус Видео]

Режиссер: Артур Пенн

В ролях: Уоррен Битти, Фэй Данауэй, Майкл Дж. Поллард, Джин Хэкмен, Эстелл Парсонс, Денвер Пайл, Даб Тейлор, Эванс Эванс, Джин Уайлдер, Марта Эдкок, Гарри Эпплинг, Оуэн Буш, Мэйбл Кэвилл, Патрик Крэншо, Фрэнсис Фишер, Сэди Френч, Гарри Гуджион, Клайд Хауди, Русс Маркер, Кен Майер, Кен Миллер, Энн Палмер, Стюарт Спэйтс, Джеймс Стайвер, Ада Во

Роли дублировали: Владимир Конкин, Ирина Савина, Юрий Саранцев, Ольга Гаспарова, Вячеслав Баранов, Михаил Лебедев, Ирина Акулова, Владислав Баландин, Олег Голубицкий, Людмила Ильина

О фильме:
Молодые и отчаянные любовники Бонни и Клайд легко и изящно грабят банки в 30-е годы XX века. Но их романтизм и «робингудство» довольно быстро перерастают в лужи и реки крови, в хаос и грязь смерти, а судьба пророчит им неудачу



Качество: DVDRip
Формат: AVI
Видео кодек: XviD
Аудио кодек: AC3
Видео: 704x400 (1.76:1), 23.976 fps, XviD build 46 ~1677 kbps avg, 0.25 bit/pixel
Аудио: 48 kHz, AC3 Dolby Digital, 2/0 (L,R) ch, ~224 kbps - Профессиональный (дублированный) [Варус Видео]
Субтитры: нет

Релиз от
General
Complete name : D:\Раздачи\Bonnie.And.Clyde.1967.Xvid.DVDrip.avi
Format : AVI
Format/Info : Audio Video Interleave
File size : 1.48 GiB
Duration : 1h 50mn
Overall bit rate : 1 910 Kbps
Writing application : VirtualDubMod 1.5.4.1 (build 2178/release)
Writing library : VirtualDubMod build 2178/release

Video
ID : 0
Format : MPEG-4 Visual
Format profile : Advanced Simple@L5
Format settings, BVOP : 1
Format settings, QPel : No
Format settings, GMC : No warppoints
Format settings, Matrix : Custom
Codec ID : XVID
Codec ID/Hint : XviD
Duration : 1h 50mn
Bit rate : 1 677 Kbps
Width : 704 pixels
Height : 400 pixels
Display aspect ratio : 16:9
Frame rate : 23.976 fps
Color space : YUV
Chroma subsampling : 4:2:0
Bit depth : 8 bits
Scan type : Progressive
Compression mode : Lossy
Bits/(Pixel*Frame) : 0.248
Stream size : 1.30 GiB (88%)
Writing library : XviD 1.1.2 (UTC 2006-11-01)

Audio
ID : 1
Format : AC-3
Format/Info : Audio Coding 3
Mode extension : CM (complete main)
Codec ID : 2000
Duration : 1h 50mn
Bit rate mode : Constant
Bit rate : 224 Kbps
Channel(s) : 2 channels
Channel positions : Front: L R
Sampling rate : 48.0 KHz
Bit depth : 16 bits
Compression mode : Lossy
Stream size : 177 MiB (12%)
Alignment : Split accross interleaves
Interleave, duration : 42 ms (1.00 video frame)
Interleave, preload duration : 500 ms



Скачать Бонни.и.Клайд.Bonnie.and.Clyde.(Артур.Пенн.Arthur.Penn).[1967.драма.криминал.биография.DVDRip].[DUB].(Варус.Видео).torrent без регистрации
Золото ЗОЛОТАЯ РАЗДАЧА! СКАЧАННОЕ НЕ ЗАСЧИТЫВАЕТСЯ! Золото
Дата: Зарегистрирован   [ Тип: внутренний ] Как тут cкачать?
MAGNET ссылка
MAGNET ссылка


Скачать .torrent

15 KB

Статус: проверено DHT
Скачан: торрент - 114 раз, раздача полностью - 43 раз
Размер: 1,48 GB
Оценка:  5 (Голосов: 2)
Поблагодарили: 3
Поделиться ссылкой на эту раздачу с друзьями:
В контактеFacebookОдноклассникиTwitterLivejournalМой МирLiveinternet
 

 
Показать сообщения:    


Вы не можете начинать темы
Вы не можете отвечать на сообщения
Вы не можете редактировать свои сообщения
Вы не можете удалять свои сообщения
Вы не можете голосовать в опросах
Вы не можете прикреплять файлы к сообщениям
Вы можете скачивать файлы