Loading...
Error

Скачать Бешеные псы / Mad Dogs (сезон 03) (Адриан Шерголд) [2013, драма, криминал, HDTVRip] [DVO (Кубик в Кубе)] торрент без регистрации

 
Статистика раздачи
Размер:  1,84 GB   |    Скачан:  160 раз

Полного источника не было: 25 минут

 
Автор Сообщение

МихаНЕзатор

[] 

Название: Бешеные псы
Оригинальное название: Mad Dogs
Год выпуска: 2013
Жанр: драма, криминал
Режиссер: Адриан Шерголд
В ролях: Джон Симм, Марк Уоррен, Макс Бисли, Филип Гленистер, Бен Чаплин, Мария Ботто, Томаш Поцци, Элуиз Джозеф, Тим Вудворд, Дэвид Уорнер, Летисия Долера, Джэми МакЛахлан, Феликс Куберо



Описание: Четверо Квинн, Бакс, Рик и Вуди. И пятый их гостеприимный, неприлично разбогатевший друг детства, Алви. Майорка, жаркое лето, шикарная вилла и неограниченное количество бабок на развлечения. Идиллическое воссоединение друзей? Приятные полуночные беседы за стаканчиком местного вина? Отрыв по полной на острове удовольствий? А мёртвого козла в бассейн не хотите? Да и гостеприимный хозяин на глазах превращается в такого же козла, только живого Или погодите



Страна: Великобритания
Продолжительность: 04 x ~ 00:45:00
Перевод: Профессиональный (двухголосый, закадровый) - Кубик в Кубе
Субтитры: нет

Озвучка: Кубик в Кубе
Перевод: TrueTransLate
Рип: ЛП

Релиз от:

Качество: HDTVRip
Формат: AVI
Видео: XviD, ~ 1000 Кбит/с, 624x352
Аудио rus: MP3, 2 ch, 224 Кбит
Аудио eng: MP3, 2 ch, 224 Кбит
General
Complete name : L:Фтп 5СериалыБешеные Псы(Mad Dogs)Mad Dogs Season 3 Kybik v KybeMad.Dogs.s03e01.rus.eng.CasStudio.TV.avi
Format : AVI
Format/Info : Audio Video Interleave
File size : 454 MiB
Duration : 43mn 20s
Overall bit rate : 1 463 Kbps
Writing application : VirtualDubMod 1.5.10.2 (build 2540/release)
Writing library : VirtualDubMod build 2540/release

Video
ID : 0
Format : MPEG-4 Visual
Format profile : Advanced Simple@L5
Format settings, BVOP : 1
Format settings, QPel : No
Format settings, GMC : No warppoints
Format settings, Matrix : Default (H.263)
Codec ID : XVID
Codec ID/Hint : XviD
Duration : 43mn 20s
Bit rate : 1 000 Kbps
Width : 624 pixels
Height : 352 pixels
Display aspect ratio : 16:9
Frame rate : 25.000 fps
Color space : YUV
Chroma subsampling : 4:2:0
Bit depth : 8 bits
Scan type : Progressive
Compression mode : Lossy
Bits/(Pixel*Frame) : 0.182
Stream size : 310 MiB (68%)
Writing library : XviD 65

Audio #1
ID : 1
Format : MPEG Audio
Format version : Version 1
Format profile : Layer 3
Codec ID : 55
Codec ID/Hint : MP3
Duration : 43mn 20s
Bit rate mode : Constant
Bit rate : 224 Kbps
Channel(s) : 2 channels
Sampling rate : 48.0 KHz
Compression mode : Lossy
Stream size : 69.5 MiB (15%)
Alignment : Aligned on interleaves
Interleave, duration : 40 ms (1.00 video frame)
Interleave, preload duration : 504 ms

Audio #2
ID : 2
Format : MPEG Audio
Format version : Version 1
Format profile : Layer 3
Mode : Joint stereo
Mode extension : MS Stereo
Codec ID : 55
Codec ID/Hint : MP3
Duration : 43mn 20s
Bit rate mode : Constant
Bit rate : 224 Kbps
Channel(s) : 2 channels
Sampling rate : 48.0 KHz
Compression mode : Lossy
Stream size : 69.5 MiB (15%)
Alignment : Aligned on interleaves
Interleave, duration : 40 ms (1.00 video frame)
Interleave, preload duration : 504 ms
Writing library : LAME3.99r
Encoding settings : -m j -V 4 -q 2 -lowpass 19.4 -b 224



Скачать Бешеные.псы.Mad.Dogs.(сезон.03).(Адриан.Шерголд).[2013.драма.криминал.HDTVRip].[DVO.(Кубик.в.Кубе)].torrent без регистрации
Золото ЗОЛОТАЯ РАЗДАЧА! СКАЧАННОЕ НЕ ЗАСЧИТЫВАЕТСЯ! Золото
Дата: Зарегистрирован   [ Тип: внутренний ] Как тут cкачать?
MAGNET ссылка
MAGNET ссылка


Скачать .torrent

19 KB

Статус: проверено DHT
Скачан: торрент - 160 раз, раздача полностью - 24 раз
Размер: 1,84 GB
Оценка:  - (Голосов: 0)
Поблагодарили: 2
Поделиться ссылкой на эту раздачу с друзьями:
В контактеFacebookОдноклассникиTwitterLivejournalМой МирLiveinternet
 

 
Показать сообщения:    


Вы не можете начинать темы
Вы не можете отвечать на сообщения
Вы не можете редактировать свои сообщения
Вы не можете удалять свои сообщения
Вы не можете голосовать в опросах
Вы не можете прикреплять файлы к сообщениям
Вы можете скачивать файлы