Loading...
Error

Скачать Сержант Билко / Sgt.Bilko (Джонатан Линн / Jonathan Lynn) [1996 г., Комедия, DVDRip] [AVO] (П.Санаев) + [MVO] (Первый канал / СТС) + [AVO] (С.Визгунов) торрент без регистрации

 
Статистика раздачи
Размер:  1,47 GB   |    Скачан:  133 раза
Сидов:  1  [  0 KB/s  ]  
 
Автор Сообщение

leon030982

[] 

Сержант Билко / Sgt.Bilko


Год выхода: 1996
Жанр: Комедия
Страна: США
Продолжительность: 01:30:05
Перевод 1: Авторский (одноголосый) [Павел Санаев]
Перевод 2: Профессиональный (многоголосный, закадровый) [Первый канал / СТС]
Перевод 3: Авторский (одноголосый) скачать с Яндекс диск --- С.Визгунов

Режиссер: Джонатан Линн

В ролях: Стив Мартин, Дэн Эйкройд, Фил Хартмен, Гленн Хедли, Дэрил Митчел, Макс Каселла, Эрик Эдвардс, Дэн Ферро, Джон Маршалл Джонс, Брайан Лекнер, Дебра Джо Рапп, Ричард Херд, Стив Кехела, Дейл Дай

О фильме: Сержант Билко блестящий мошенник, острослов и неисправимый спорщик. Он самый неблагонадежный человек в округе, и при этом его любят все. Ну, не все, конечно. Трудно любить человека, руку которого обнаруживаешь в своем кармане. У сержанта Билко есть один заклятый враг, один друг и одна возлюбленная. Эрнест Билко заведует гаражом на военной базе. Он обладает особым даром «ставить диагноз» сломанным машинам, не открывая крышки капота. Кроме того, Эрнест повсюду находит деньги по запаху. Сержант Билко глубоко уважает солдат и офицеров армии США. Он считает, что эти патриоты сделали очень много для своей страны и имеют полное право поразвлечься в свободное от муштры время. Сержант Билко по собственной воле возложил на себя обязанность массовика-затейника для отставных офицеров и превратил форт Бакстер в игорный центр. Общаясь с этим необычным человеком, можно быть уверенным только в одной вещи: если сержант Билко заключил пари, без сомнений, в выигрыше останется именно он.



Качество: DVDRip
Формат: AVI
Видео кодек: XviD
Аудио кодек: AC3
Видео: 720x304 (2.37:1), 25 fps, XviD build 47 ~1931 kbps avg, 0.35 bit/pixel
Аудио 1: 48 kHz, AC3 Dolby Digital, 2/0 (L,R) ch, ~192.00 kbps avg - [П.Санаев]
Аудио 2: 48 kHz, AC3 Dolby Digital, 2/0 (L,R) ch, ~192.00 kbps avg - [Первый канал / СТС]
Аудио 3: 48 kHz, AC3 Dolby Digital, 2/0 (L,R) ch, ~192.00 kbps avg - скачать с Яндекс диск --- С.Визгунов
E:\INTERNET\Serzhant_Bilko.1996.DVDRip.[AVO]+[MVO]avi.
General
Complete name : E:\INTERNET\Serzhant_Bilko.1996.DVDRip.[AVO]+[MVO]avi.
Format : AVI
Format/Info : Audio Video Interleave
File size : 1.47 GiB
Duration : 1h 30mn
Overall bit rate : 2 331 Kbps
Movie name : Serzhant_Bilko.1996.DVDRip.[AVO]+[MVO]avi.
Genre : Comedy
Writing application : VirtualDubMod 1.5.10.3 (build 2550/release)
Writing library : VirtualDubMod build 2550/release
Video #0
ID : 0
Format : MPEG-4 Visual
Format profile : Advanced Simple@L5
Format settings, BVOP : 1
Format settings, QPel : No
Format settings, GMC : No warppoints
Format settings, Matrix : Default (MPEG)
Codec ID : XVID
Codec ID/Hint : XviD
Duration : 1h 30mn
Bit rate : 1 933 Kbps
Width : 720 pixels
Height : 304 pixels
Display aspect ratio : 2.35:1
Frame rate : 25.000 fps
Color space : YUV
Chroma subsampling : 4:2:0
Bit depth : 8 bits
Scan type : Progressive
Compression mode : Lossy
Bits/(Pixel*Frame) : 0.353
Stream size : 1.22 GiB (83%)
Writing library : XviD 1.2.0.dev47 (UTC 2006-11-01)
Audio #1
ID : 1
Format : AC-3
Format/Info : Audio Coding 3
Mode extension : CM (complete main)
Format settings, Endianness : Big
Codec ID : 2000
Duration : 1h 30mn
Bit rate mode : Constant
Bit rate : 192 Kbps
Channel(s) : 2 channels
Channel positions : Front: L R
Sampling rate : 48.0 KHz
Bit depth : 16 bits
Compression mode : Lossy
Stream size : 124 MiB (8%)
Alignment : Split accross interleaves
Interleave, duration : 40 ms (1.00 video frame)
Interleave, preload duration : 500 ms
Audio #2
ID : 2
Format : AC-3
Format/Info : Audio Coding 3
Mode extension : CM (complete main)
Format settings, Endianness : Big
Codec ID : 2000
Duration : 1h 30mn
Bit rate mode : Constant
Bit rate : 192 Kbps
Channel(s) : 2 channels
Channel positions : Front: L R
Sampling rate : 48.0 KHz
Bit depth : 16 bits
Compression mode : Lossy
Stream size : 124 MiB (8%)
Alignment : Aligned on interleaves
Interleave, duration : 40 ms (1.00 video frame)
Interleave, preload duration : 512 ms



Скачать Сержант.Билко.Sgt.Bilko.(Джонатан.Линн.Jonathan.Lynn).[1996.г.Комедия.DVDRip].[AVO].(П.Санаев).+.[MVO].(Первый.канал.СТС).+.[AVO].(С.Визгунов).torrent без регистрации
Золото ЗОЛОТАЯ РАЗДАЧА! СКАЧАННОЕ НЕ ЗАСЧИТЫВАЕТСЯ! Золото
Дата: Зарегистрирован   [ Тип: внутренний ] Как тут cкачать?
MAGNET ссылка
MAGNET ссылка


Скачать .torrent

15 KB

Статус: проверено DHT
Скачан: торрент - 133 раз, раздача полностью - 16 раз
Размер: 1,47 GB
Оценка:  5 (Голосов: 2)
Поблагодарили: 4
Поделиться ссылкой на эту раздачу с друзьями:
В контактеFacebookОдноклассникиTwitterLivejournalМой МирLiveinternet
 

 

leon030982

[] 

Добавлена ссылка на дорожку от С.Визгунова ab синхронизирована под этот рип и рипы аналогичной продолжительности az
 
Показать сообщения:    


Вы не можете начинать темы
Вы не можете отвечать на сообщения
Вы не можете редактировать свои сообщения
Вы не можете удалять свои сообщения
Вы не можете голосовать в опросах
Вы не можете прикреплять файлы к сообщениям
Вы можете скачивать файлы