Loading...
Error

Скачать Черный дождь / Black Rain (Ридли Скотт) [1989, боевик, триллер, драма, криминал, BDRip] [MVO] торрент без регистрации

 
Статистика раздачи
Размер:  747 MB   |    Скачан:  110 раз
Сидов:  1  [  0 KB/s  ]  
 
Автор Сообщение

Marsianka

[] 

Информация о фильме
Название: Черный дождь
Оригинальное название: Black Rain
Год выхода: 1989
Жанр: боевик, триллер, драма, криминал
Режиссер: Ридли Скотт / Ridley Scott
В ролях: Майкл Дуглас, Энди Гарсиа, Кэн Такакура, Кейт Кэпшоу, Юсаку Мацуда, Сигеру Кояма, Джон Спенсер, Гуц Исимацу, Юя Утида, Томисабуро Вакаяма, Луис Гузман

О фильме:
Двум нью-йоркским полицейским попадает в руки безжалостный убийца, принадлежащий к японской мафии-якудза. Партнерам предстоит эскортировать преступника в Осаку, где его ждет суд. Но на японской земле злодею удается скрыться. Герои вместе с японским детективом бросаются на его поиски и оказываются втянутыми в кровавую войну гангстерских кланов.



Страна: США
Продолжительность: 02:05:18
Перевод: Профессиональный (многоголосый закадровый)

Файл
Кодек: XviD
Качество: BDRip
Видео: 688x288 (2.40:1), 23.976 fps, 712 Kbps, 0.15 Bits/(Pixel*Frame)
Звук: MP3, 48 KHz, 112 Kbps, 2 channels

Семпл
General
Complete name : D:Chernyj.dozhd'.1989.BDRip.XviD.747mb.avi
Format : AVI
Format/Info : Audio Video Interleave
File size : 747 MiB
Duration : 2h 5mn
Overall bit rate : 833 Kbps
Writing application : VirtualDubMod 1.5.10.2 (build 2540/release)
Writing library : VirtualDubMod build 2540/release
Video
ID : 0
Format : MPEG-4 Visual
Format profile : Advanced Simple@L5
Format settings, BVOP : 1
Format settings, QPel : No
Format settings, GMC : No warppoints
Format settings, Matrix : Default (MPEG)
Codec ID : XVID
Codec ID/Hint : XviD
Duration : 2h 5mn
Bit rate : 712 Kbps
Width : 688 pixels
Height : 288 pixels
Display aspect ratio : 2.40:1
Frame rate : 23.976 fps
Color space : YUV
Chroma subsampling : 4:2:0
Bit depth : 8 bits
Scan type : Progressive
Compression mode : Lossy
Bits/(Pixel*Frame) : 0.150
Stream size : 638 MiB (85%)
Writing library : XviD 1.2.1 (UTC 2008-12-04)
Audio
ID : 1
Format : MPEG Audio
Format version : Version 1
Format profile : Layer 3
Mode : Joint stereo
Mode extension : MS Stereo
Codec ID : 55
Codec ID/Hint : MP3
Duration : 2h 5mn
Bit rate mode : Constant
Bit rate : 112 Kbps
Channel(s) : 2 channels
Sampling rate : 48.0 KHz
Compression mode : Lossy
Stream size : 100 MiB (13%)
Alignment : Aligned on interleaves
Interleave, duration : 42 ms (1.00 video frame)
Interleave, preload duration : 504 ms
Writing library : LAME3.97











Скачать Черный.дождь.Black.Rain.(Ридли.Скотт).[1989.боевик.триллер.драма.криминал.BDRip].[MVO].torrent без регистрации
Золото ЗОЛОТАЯ РАЗДАЧА! СКАЧАННОЕ НЕ ЗАСЧИТЫВАЕТСЯ! Золото
Дата: Зарегистрирован   [ Тип: внутренний ] Как тут cкачать?
MAGNET ссылка
MAGNET ссылка


Скачать .torrent

15 KB

Статус: проверено DHT
Скачан: торрент - 110 раз, раздача полностью - 16 раз
Размер: 747 MB
Оценка:  - (Голосов: 0)
Поблагодарили: 2
Поделиться ссылкой на эту раздачу с друзьями:
В контактеFacebookОдноклассникиTwitterLivejournalМой МирLiveinternet
 

 
Показать сообщения:    


Вы не можете начинать темы
Вы не можете отвечать на сообщения
Вы не можете редактировать свои сообщения
Вы не можете удалять свои сообщения
Вы не можете голосовать в опросах
Вы не можете прикреплять файлы к сообщениям
Вы можете скачивать файлы