Loading...
Error

Скачать Во имя короля: История осады подземелья / In the Name of the King: A Dungeon Siege Tale (Уве Болл) [2007, фэнтези, боевик, приключения, HDRip-AVC] [Dub] торрент без регистрации

 
Статистика раздачи
Размер:  1,45 GB   |    Скачан:  163 раза
Сидов:  1  [  0 KB/s  ]  
 
Автор Сообщение

Marsianka

[] 

Год выпуска: 2007
Жанр: фэнтези, боевик, приключения
Продолжительность: 02:07:04
Перевод: Дублированный
Субтитры: отсутствуют

Режиссер: Уве Болл

Актеры: Джейсон Стэтхэм, Лили Собески, Джон Рис-Дэвис, Рон Перлман, Клер Форлани, Кристанна Локен, Мэттью Лиллард, Брайан Дж. Уайт, Майк Допуд, Уилл Сэндерсон, Рэй Лиотта, Берт Рейнолдс и др.

Описание фильма:
Действие происходит в королевстве Эб. Много лет назад городок Стоунбридж усыновил мальчика-сироту, который вырос сильным и трудолюбивым человеком по прозвищу Фермер. Когда его жена Солана и их малолетний сын уезжают в Стоунбридж, чтобы продать урожай, их ферма и сам городок подвергаются нападению нечеловеческих существ под названием краги. С помощью своего старого друга Норрика, Фермер спешит в Стоунбридж, но слишком поздно. Краги убивают сына Фермера и похищают Солану. Король Конрейд, правитель Эба, услышав о набегах крагов, объявляет всеобщий призыв, но Фермер, Норрик и Бастиан, шурин Фермера, отказываются вступать в королевскую гвардию и решают втроём вызволить Солану. Королевский магус Мерик узнаёт, что крагами управляет бывший магус Галлиан, решивший захватить королевство для себя. Для этого Галлиан соблазняет дочь Мерика Муриеллу, тайком «высасывая» её ещё не проявившиеся магические способности. Также одним из союзников Галлиана является племянник Конрейда герцог Фаллоу, который не желает ждать естественной смерти бездетного короля, чтобы заполучить трон.



Автор:

Качество: HDRip-AVC
Контейнер: MKV
Видео: MPEG-4 AVC/H.264, 896 х 384, ~1256 Кбит/сек
Аудио: AC3 5.1, 384 Кбит/сек
Семпл
Формат : Matroska
Версия формата : Version 2
Размер файла : 1,45 Гбайт
Продолжительность : 2 ч. 7 м.
Общий поток : 1637 Кбит/сек
Дата кодирования : UTC 2013-07-27 10:28:33
Программа кодирования : mkvmerge v4.0.0 ('The Stars were mine') сборка от Jun 11 2010 23:24:27
Библиотека кодирования : libebml v1.0.0 + libmatroska v1.0.0
Attachment : Yes

Видео
Идентификатор : 1
Формат : AVC
Формат/Информация : Advanced Video Codec
Профиль формата : High@L4.1
Параметр CABAC формата : Да
Параметр ReFrames формата : 11 кадров
Идентификатор кодека : V_MPEG4/ISO/AVC
Продолжительность : 2 ч. 7 м.
Битрейт : 1256 Кбит/сек
Ширина : 896 пикселей
Высота : 384 пикселя
Соотношение сторон : 2,35:1
Режим частоты кадров : Постоянный
Частота кадров : 23,976 кадра/сек
Цветовое пространство : YUV
Субдискретизация насыщенности : 4:2:0
Битовая глубина : 8 бит
Тип развёртки : Прогрессивная
Бит/(Пиксели*Кадры) : 0.152
Размер потока : 1,08 Гбайт (75%)
Библиотека кодирования : x264 core 133 r2334 a3ac64b
Настройки программы : cabac=1 / ref=11 / deblock=1:-2:-1 / analyse=0x3:0x133 / me=umh / subme=10 / psy=1 / psy_rd=1.02:0.04 / mixed_ref=1 / me_range=32 / chroma_me=1 / trellis=2 / 8x8dct=1 / cqm=0 / deadzone=21,11 / fast_pskip=1 / chroma_qp_offset=-3 / threads=12 / lookahead_threads=3 / sliced_threads=0 / nr=0 / decimate=1 / interlaced=0 / bluray_compat=0 / constrained_intra=0 / bframes=11 / b_pyramid=2 / b_adapt=2 / b_bias=0 / direct=3 / weightb=1 / open_gop=0 / weightp=2 / keyint=240 / keyint_min=23 / scenecut=40 / intra_refresh=0 / rc_lookahead=40 / rc=2pass / mbtree=1 / bitrate=1256 / ratetol=1.0 / qcomp=0.60 / qpmin=0 / qpmax=69 / qpstep=4 / cplxblur=20.0 / qblur=0.5 / ip_ratio=1.40 / aq=1:1.00
Язык : English
Default : Да
Forced : Нет

Аудио
Идентификатор : 2
Формат : AC-3
Формат/Информация : Audio Coding 3
Расширение режима : CM (complete main)
Параметр Endianness формата : Big
Идентификатор кодека : A_AC3
Продолжительность : 2 ч. 7 м.
Вид битрейта : Постоянный
Битрейт : 384 Кбит/сек
Каналы : 6 каналов
Расположение каналов : Front: L C R, Side: L R, LFE
Частота : 48,0 КГц
Битовая глубина : 16 бит
Метод сжатия : С потерями
Размер потока : 349 Мбайт (23%)
Default : Да
Forced : Нет



Скачать Во.имя.короля.История.осады.подземелья.In.the.Name.of.the.King.A.Dungeon.Siege.Tale.(Уве.Болл).[2007.фэнтези.боевик.приключения.HDRip-AVC].[Dub].torrent без регистрации
Золото ЗОЛОТАЯ РАЗДАЧА! СКАЧАННОЕ НЕ ЗАСЧИТЫВАЕТСЯ! Золото
Дата: Зарегистрирован   [ Тип: внутренний ] Как тут cкачать?
MAGNET ссылка
MAGNET ссылка


Скачать .torrent

15 KB

Статус: проверено DHT
Скачан: торрент - 163 раз, раздача полностью - 91 раз
Размер: 1,45 GB
Оценка:  - (Голосов: 0)
Поблагодарили: 4
Поделиться ссылкой на эту раздачу с друзьями:
В контактеFacebookОдноклассникиTwitterLivejournalМой МирLiveinternet
 

 
Показать сообщения:    


Вы не можете начинать темы
Вы не можете отвечать на сообщения
Вы не можете редактировать свои сообщения
Вы не можете удалять свои сообщения
Вы не можете голосовать в опросах
Вы не можете прикреплять файлы к сообщениям
Вы можете скачивать файлы