Loading...
Error

Скачать Пожизненно / Life (Тед Демме) [1999, комедия, драма, криминал, BDRip-AVC] [MVO]+[AVO] торрент без регистрации

 
Статистика раздачи
Размер:  3,01 GB   |    Скачан:  113 раз
Сидов:  1  [  0 KB/s  ]  
 
Автор Сообщение

Marsianka

[] 

Информация о фильме
Название: Пожизненно
Оригинальное название: Life
Год выпуска: 1999
Жанр: комедия, драма, криминал
Режиссер: Тед Демме
В ролях: Эдди Мерфи, Мартин Лоуренс, Обба Бабатунде, Ник Кассаветис, Энтони Андерсон, Бэрри Шебака Хенли, Брент Дженнингс, Берни Мак, Мигель А. Нуньес мл., Майкл Талиферро

О фильме: Нью-Йорк, 1932 год. Сухой закон загнал добропорядочных, но страстно желающих выпить граждан в подпольные питейные заведения. В одном из таких притонов и пересеклись дорожки мелкого воришки Рэя Гибсона и незадачливого банковского служащего Клода Бэнкса. По роковому стечению обстоятельств Рэй и Клод не угодили местному боссу мафии и влипли в большие неприятности. Чтобы реабилитироваться перед разгневанным бандитом, приятели согласились перегнать набитый спиртным грузовик из штата Миссисипи в Нью Йорк. Но по дороге их арестовали, незаконно обвинили в убийстве и приговорили к пожизненному заключению в местной колонии строгого режима. Теперь товарищам по несчастью предстоит провести свою жизнь в компании уголовников, не потеряв при этом, однако, надежду совершить побег и отомстить своим обидчикам



Страна: CША
Студия: Imagine Entertainment, Universal Pictures
Продолжительность: 01:48:35
Перевод: Профессиональный многоголосый, авторский одноголосый

Файл
Кодек: x264
Качество: BDRip (AVC)
Видео: MPEG-4 AVC, 3000 Кбит/с, 1024x554, 23.976 кадр/с
Аудио #1: Русский (AC3, 2 ch, 192 Кбит/с) / Профессиональный многоголосый
Аудио #2: Русский (AC3, 6 ch, 448 Кбит/с) / Авторский одноголосый (Ю. Живов)
Аудио #3: Английский (AC3, 6 ch, 448 Кбит/с)
Семпл
Уникальный идентификатор : 214709997738577794885147872751336437141 (0xA187A432D11FF79AA9B22ACBF9523595)
Полное имя : D:Mои раздачиPozhiznenno.1999.BDRip.(AVC)-MediaClub.mkv
Формат : Matroska
Версия формата : Version 2
Размер файла : 3,01 Гбайт
Продолжительность : 1 ч. 48 м.
Общий поток : 3966 Кбит/сек
Название фильма : -=MediaClub-kaspr=-
Дата кодирования : UTC 2013-07-28 13:52:28
Программа кодирования : mkvmerge v5.7.0 ('The Whirlwind') built on Aug 7 2012 14:11:40
Библиотека кодирования : libebml v1.2.3 + libmatroska v1.3.0

Видео
Идентификатор : 1
Формат : AVC
Формат/Информация : Advanced Video Codec
Профиль формата : High@L4.1
Параметр CABAC формата : Да
Параметр ReFrames формата : 9 кадров
Идентификатор кодека : V_MPEG4/ISO/AVC
Продолжительность : 1 ч. 48 м.
Битрейт : 2799 Кбит/сек
Номинальный битрейт : 3000 Кбит/сек
Ширина : 1024 пикселя
Высота : 554 пикселя
Соотношение сторон : 1,85:1
Режим частоты кадров : Постоянный
Частота кадров : 23,976 кадра/сек
Цветовое пространство : YUV
Субдискретизация насыщенности : 4:2:0
Битовая глубина : 8 бит
Тип развёртки : Прогрессивная
Бит/(Пиксели*Кадры) : 0.206
Размер потока : 2,12 Гбайт (71%)
Заголовок : -=MediaClub-kaspr=-
Библиотека кодирования : x264 core 130 r2273 b3065e6
Настройки программы : cabac=1 / ref=9 / deblock=1:-3:-3 / analyse=0x3:0x133 / me=umh / subme=11 / psy=1 / psy_rd=1.00:0.20 / mixed_ref=1 / me_range=32 / chroma_me=1 / trellis=2 / 8x8dct=1 / cqm=0 / deadzone=21,11 / fast_pskip=0 / chroma_qp_offset=-3 / threads=12 / lookahead_threads=3 / sliced_threads=0 / nr=0 / decimate=0 / interlaced=0 / bluray_compat=0 / constrained_intra=0 / bframes=10 / b_pyramid=2 / b_adapt=2 / b_bias=0 / direct=3 / weightb=1 / open_gop=0 / weightp=2 / keyint=250 / keyint_min=23 / scenecut=40 / intra_refresh=0 / rc=2pass / mbtree=0 / bitrate=3000 / ratetol=1.0 / qcomp=0.60 / qpmin=0 / qpmax=69 / qpstep=4 / cplxblur=20.0 / qblur=0.5 / ip_ratio=1.40 / pb_ratio=1.30 / aq=1:1.00
Default : Да
Forced : Да

Аудио #1
Идентификатор : 2
Формат : AC-3
Формат/Информация : Audio Coding 3
Расширение режима : CM (complete main)
Параметр Endianness формата : Big
Идентификатор кодека : A_AC3
Продолжительность : 1 ч. 48 м.
Вид битрейта : Постоянный
Битрейт : 192 Кбит/сек
Каналы : 2 канала
Расположение каналов : Front: L R
Частота : 48,0 КГц
Битовая глубина : 16 бит
Метод сжатия : С потерями
Размер потока : 149 Мбайт (5%)
Заголовок : MVO
Язык : Russian
Default : Да
Forced : Да

Аудио #2
Идентификатор : 3
Формат : AC-3
Формат/Информация : Audio Coding 3
Расширение режима : CM (complete main)
Параметр Endianness формата : Big
Идентификатор кодека : A_AC3
Продолжительность : 1 ч. 48 м.
Вид битрейта : Постоянный
Битрейт : 448 Кбит/сек
Каналы : 6 каналов
Расположение каналов : Front: L C R, Side: L R, LFE
Частота : 48,0 КГц
Битовая глубина : 16 бит
Метод сжатия : С потерями
Размер потока : 348 Мбайт (11%)
Заголовок : Живов
Язык : Russian
Default : Нет
Forced : Нет

Аудио #3
Идентификатор : 4
Формат : AC-3
Формат/Информация : Audio Coding 3
Расширение режима : CM (complete main)
Параметр Endianness формата : Big
Идентификатор кодека : A_AC3
Продолжительность : 1 ч. 48 м.
Вид битрейта : Постоянный
Битрейт : 448 Кбит/сек
Каналы : 6 каналов
Расположение каналов : Front: L C R, Side: L R, LFE
Частота : 48,0 КГц
Битовая глубина : 16 бит
Метод сжатия : С потерями
Размер потока : 348 Мбайт (11%)
Заголовок : Оригинал
Язык : English
Default : Нет
Forced : Нет

Меню
00:00:00.000 : en:(безымянный)
00:02:24.770 : en:(безымянный)
00:04:01.533 : en:(безымянный)
00:08:24.254 : en:(безымянный)
00:11:23.182 : en:(безымянный)
00:16:29.614 : en:(безымянный)
00:25:46.295 : en:(безымянный)
00:30:10.183 : en:(безымянный)
00:38:33.478 : en:(безымянный)
00:47:56.457 : en:(безымянный)
00:51:09.358 : en:(безымянный)
00:58:11.279 : en:(безымянный)
01:05:45.150 : en:(безымянный)
01:08:36.446 : en:(безымянный)
01:18:16.483 : en:(безымянный)
01:29:53.221 : en:(безымянный)
01:36:42.296 : en:(безымянный)
01:42:58.255 : en:(безымянный)
Релиз:



Скачать Пожизненно.Life.(Тед.Демме).[1999.комедия.драма.криминал.BDRip-AVC].[MVO]+[AVO].torrent без регистрации
Золото ЗОЛОТАЯ РАЗДАЧА! СКАЧАННОЕ НЕ ЗАСЧИТЫВАЕТСЯ! Золото
Дата: Зарегистрирован   [ Тип: внутренний ] Как тут cкачать?
MAGNET ссылка
MAGNET ссылка


Скачать .torrent

16 KB

Статус: проверено DHT
Скачан: торрент - 113 раз, раздача полностью - 38 раз
Размер: 3,01 GB
Оценка:  - (Голосов: 0)
Поблагодарили: 3
Поделиться ссылкой на эту раздачу с друзьями:
В контактеFacebookОдноклассникиTwitterLivejournalМой МирLiveinternet
 

 
Показать сообщения:    


Вы не можете начинать темы
Вы не можете отвечать на сообщения
Вы не можете редактировать свои сообщения
Вы не можете удалять свои сообщения
Вы не можете голосовать в опросах
Вы не можете прикреплять файлы к сообщениям
Вы можете скачивать файлы