Loading...
Error

Скачать Изобретение лжи / The Invention of Lying (Рики Джервэйс / Ricky Gervais, Мэттью Робинсон / Matthew Robinson) [2009 г., Комедия, BDRip] [AVO] (А.Карповский) торрент без регистрации

 
Статистика раздачи
Размер:  1,47 GB   |    Скачан:  131 раз
Сидов:  1  [  0 KB/s  ]  
 
Автор Сообщение

leon030982

[] 

Изобретение лжи / The Invention of Lying


Год выпуска: 2009
Страна: США
Жанр: Комедия
Продолжительность: 01:39:29
Перевод: Авторский (одноголосый закадровый) [Антон Карповский]
Cубтитры: нет

Режиссер: Рики Джервэйс / Ricky Gervais, Мэттью Робинсон / Matthew Robinson

В ролях: Рики Джервэйс, Дженнифер Гарнер, Джона Хилл, Луис С.К., Джеффри Тэмбор, Роб Лоу

Описание: Главный герой Марк живет в мире, где все говорят правду и только правду, здесь не существует лжи. Сам же он толстый неудачник, которого вот-вот уволят с работы. После чего его домовладелец дает ему 1 день, чтобы найти деньги на оплату жилья. Марк решается снять свои последние 300 долларов со счета, но вдруг что-то происходит в его голове, и в банке он, соврав, говорит что хочет снять 800 долларов, и ему их выдают. После чего Марк потихоньку начинает понимать все и начинает пользоваться этим чтобы сделать свою жизнь и жизнь людей лучше…



Качество видео: BDRip
Формат видео: AVI
Видео кодек: XviD
Аудио кодек: AC3
Видео: 720x400 (1.80:1), 23.976 fps, XviD build 50 ~1718 kbps avg, 0.25 bit/pixel
Аудио: 48 kHz, AC3 Dolby Digital, 3/2 (L,C,R,l,r) + LFE ch, ~384.00 kbps avg [А.Карповский]
Формат : AVI
Формат/Информация : Audio Video Interleave
Размер файла : 1,47 Гбайт
Продолжительность : 1 ч. 39 м.
Общий поток : 2112 Кбит/сек
Программа кодирования : VirtualDubMod 1.5.10.3 || (build 2550/release)
Библиотека кодирования : VirtualDubMod build 2550/release
Видео
Идентификатор : 0
Формат : MPEG-4 Visual
Профиль формата : Advanced Simple@L5
Параметр BVOP формата : 1
Параметр QPel формата : Нет
Параметр GMC формата : Без точки перехода
Параметр матрицы формата : Default (H.263)
Идентификатор кодека : XVID
Идентификатор кодека/Подсказка : XviD
Продолжительность : 1 ч. 39 м.
Битрейт : 1719 Кбит/сек
Ширина : 720 пикселей
Высота : 400 пикселей
Соотношение сторон : 16:9
Частота кадров : 23,976 кадра/сек
Цветовое пространство : YUV
Субдискретизация насыщенности : 4:2:0
Битовая глубина : 8 бит
Тип развёртки : Прогрессивная
Метод сжатия : С потерями
Бит/(Пиксели*Кадры) : 0.249
Размер потока : 1,19 Гбайт (81%)
Библиотека кодирования : XviD 1.2.1 (UTC 2008-12-04)
Аудио
Идентификатор : 1
Формат : AC-3
Формат/Информация : Audio Coding 3
Расширение режима : CM (complete main)
Параметр Endianness формата : Big
Идентификатор кодека : 2000
Продолжительность : 1 ч. 39 м.
Вид битрейта : Постоянный
Битрейт : 384 Кбит/сек
Каналы : 6 каналов
Расположение каналов : Front: L C R, Side: L R, LFE
Частота : 48,0 КГц
Битовая глубина : 16 бит
Метод сжатия : С потерями
Размер потока : 273 Мбайт (18%)
Выравнивание : Разделение по промежуткам
Продолжительность промежутка : 42 мс. (1,00 видеокадр)
Время предзагрузки промежутка : 500 мс.



Скачать Изобретение.лжи.The.Invention.of.Lying.(Рики.Джервэйс.Ricky.Gervais.Мэттью.Робинсон.Matthew.Robinson).[2009.г.Комедия.BDRip].[AVO].(А.Карповский).torrent без регистрации
Золото ЗОЛОТАЯ РАЗДАЧА! СКАЧАННОЕ НЕ ЗАСЧИТЫВАЕТСЯ! Золото
Дата: Зарегистрирован   [ Тип: внутренний ] Как тут cкачать?
MAGNET ссылка
MAGNET ссылка


Скачать .torrent

15 KB

Статус: проверено DHT
Скачан: торрент - 131 раз, раздача полностью - 153 раз
Размер: 1,47 GB
Оценка:  5 (Голосов: 2)
Поблагодарили: 1
Поделиться ссылкой на эту раздачу с друзьями:
В контактеFacebookОдноклассникиTwitterLivejournalМой МирLiveinternet
 

 
Показать сообщения:    


Вы не можете начинать темы
Вы не можете отвечать на сообщения
Вы не можете редактировать свои сообщения
Вы не можете удалять свои сообщения
Вы не можете голосовать в опросах
Вы не можете прикреплять файлы к сообщениям
Вы можете скачивать файлы