Loading...
Error

Скачать Возмездие / Retribution (Гай Мэгар / Guy Magar) [1987 г., Мистика, Триллер, DVDRip] [AVO] (А.Гаврилов) торрент без регистрации

 
Статистика раздачи
Размер:  1,59 GB   |    Скачан:  129 раз
Сидов:  1  [  0 KB/s  ]  
 
Автор Сообщение

leon030982

[] 

Возмездие / Retribution

Год выпуска: 1987
Страна: США
Жанр: Мистика, Триллер
Продолжительность: 01:49:04
Перевод: Авторский (Одноголосный, закадровый) [Андрей Гаврилов]
Русские субтитры: Нет

Режиссер: Гай Мэгар / Guy Magar

В ролях: Деннис Липском / Dennis Lipscomb, Лесли Уинг / Leslie Wing, Сьюзэнн Снайдер / Suzanne Snyder, Джефф Померанц / , Джордж Мердок / Jeff Pomerantz, Пэмела Данлэп / Pamela Dunlap, Сьюзэн Перец / Susan Peretz, Клэр Пек / Clare Peck Clare Peck , Крис Капуто / Chris Caputo, Хойт Экстон / Hoyt Axton

Описание: Неудачливый художник Джордж Миллер решает покончить с жизнью в ночь Хеллоуина. Но спрыгнув с крыши, он почему-то не умирает, хотя остаться живым при таком падении невозможно. По выходу из больницы его начинают преследовать кошмары, в которых он убивает незнакомых ему людей, а потом выясняется, что эти убийства имели место в действительности. Джордж и его друзья пытаются понять, что же на самом деле с ним происходит, и постепенно становится понятно, что Джордж не всегда Джордж. Время от времени его телом завладевает кто-то другой, обладающий страшной зловещей силой. Кто-то, кто вернул Джорджа с того света, с какой-то неизвестной целью.


Качество: DVDRip
Формат: AVI
Видео кодек: XviD
Аудио кодек: AC3
Видео: 720x416 (16/9), 23.976 fps, ~1 694 kbps avg, 0.236 bit/pixel
Aудио #1: Русский 48 kHz, AC3 Dolby Digital, 2/0 (L,R) ch, ~192.00 kbps avg [А.Гаврилов (с VHS)]
Aудиo #2: Английский 48 kHz, AC3 Dolby Digital, 2/0 (L,R) ch, ~192.00 kbps avg (Отдельно)
General
Complete name : F:\Retribution\Retribution.avi
Format : AVI
Format/Info : Audio Video Interleave
File size : 1.44 GiB
Duration : 1h 49mn
Overall bit rate : 1 895 Kbps
Writing application : VirtualDubMod 1.5.10.2 (build 2540/release)
Writing library : VirtualDubMod build 2540/release
Video
ID : 0
Format : MPEG-4 Visual
Format profile : Advanced Simple@L5
Format settings, BVOP : Yes
Format settings, QPel : No
Format settings, GMC : No warppoints
Format settings, Matrix : Custom
Codec ID : XVID
Codec ID/Hint : XviD
Duration : 1h 49mn
Bit rate : 1 694 Kbps
Width : 720 pixels
Height : 416 pixels
Display aspect ratio : 16:9
Frame rate : 23.976 fps
Resolution : 8 bits
Colorimetry : 4:2:0
Scan type : Progressive
Bits/(Pixel*Frame) : 0.236
Stream size : 1.29 GiB (89%)
Writing library : XviD 1.2.1 (UTC 2008-12-04)
Audio
ID : 1
Format : AC-3
Format/Info : Audio Coding 3
Codec ID : 2000
Duration : 1h 49mn
Bit rate mode : Constant
Bit rate : 192 Kbps
Channel(s) : 2 channels
Channel positions : L R
Sampling rate : 48.0 KHz
Stream size : 150 MiB (10%)
Alignment : Split accross interleaves
Interleave, duration : 42 ms (1.00 video frame)
Interleave, preload duration : 500 ms
Language : English



Скачать Возмездие.Retribution.(Гай.Мэгар.Guy.Magar).[1987.г.Мистика.Триллер.DVDRip].[AVO].(А.Гаврилов).torrent без регистрации
Золото ЗОЛОТАЯ РАЗДАЧА! СКАЧАННОЕ НЕ ЗАСЧИТЫВАЕТСЯ! Золото
Дата: Зарегистрирован   [ Тип: внутренний ] Как тут cкачать?
MAGNET ссылка
MAGNET ссылка


Скачать .torrent

17 KB

Статус: проверено DHT
Скачан: торрент - 129 раз, раздача полностью - 2 раз
Размер: 1,59 GB
Оценка:  5 (Голосов: 2)
Поблагодарили: 1
Поделиться ссылкой на эту раздачу с друзьями:
В контактеFacebookОдноклассникиTwitterLivejournalМой МирLiveinternet
 

 

jon99

[] 

Гаврилов - это хорошо ! , мой любимый переводчик ab
 
Показать сообщения:    


Вы не можете начинать темы
Вы не можете отвечать на сообщения
Вы не можете редактировать свои сообщения
Вы не можете удалять свои сообщения
Вы не можете голосовать в опросах
Вы не можете прикреплять файлы к сообщениям
Вы можете скачивать файлы