Loading...
Error

Скачать Двойная игра / Out of Control (Ричард Тревор / Richard Trevor) [1998, триллер, мелодрама, DVDRip] [AVO] (Ю.Сербин) торрент без регистрации

 
Статистика раздачи
Размер:  950 MB   |    Скачан:  125 раз
Сидов:  1  [  0 KB/s  ]  
 
Автор Сообщение

leon030982

[] 

Двойная игра / Out of Control


Год выпуска: 1998
Страна: Канада, США
Жанр: триллер, мелодрама
Продолжительность: 01:29:00
Перевод: Авторский (одноголосный, закадровый) [Юрий Сербин]

Режиссер: Ричард Тревор / Richard Trevor

В ролях: Шон Янг, Том Конти, Ларри Дэй, Джек Лангедийк, Марк Камачо, Тед Уиттэлл, Джейн Хейтмейер, Карл Алакки, Гриффит Брюэр, Эмма Кэмпбелл

Описание: Из маленького провинциального городка, живущего по законам местного мафиози, с миллионом долларов, украденных у главы преступной группировки, сбегает молодая красивая девушка Лена Фишер. Перебираясь из города в город, уставшая от постоянного преследования, она обращается за помощью к случайному встречному, которым оказывается владелец ресторанчика по имени Эдди. Спасая Лену, он убивает настигающего ее наемного убийцу.
Начинается жизнь под страхом разоблачения, где каждый может оказаться не тем, за кого себя выдает. Постоянные подозрения и новые убийства зарождают недоверие между успевшими привязаться друг к другу молодыми людьми. Эдди, вынужденный избавляться от все растущего числа трупов, подозревает, что он только пешка в страшной игре его возлюбленной. Ему нужно сделать правильный выбор: послушаться своего сердца и поверить в ужасное стечение обстоятельств, или следовать разуму и навсегда избавиться от смертоносной красавицы.




Качество: DVDRip
Формат: AVI
Видео кодек: XviD
Аудио кодек: AC3
Видео: 640x480 (1.33:1), 25 fps, XviD build 55 ~1285 kbps avg, 0.17 bit/pixel
Аудио: 48 kHz, AC3 Dolby Digital, 2/0 (L,R) ch, ~192.00 kbps avg [Ю.Сербин]
Дорожка с Ю. Сербиным синхронизирована, ремастирована и наложена ale_x2008 при помощи Sony Vegas и VirtualDubMod.
За оцифрованную с VHS дорожку благодарим - Fikaloid
Релиз является эксклюзивом для ex.ua, при выкладывании на других ресурсах просьба указывать первоисточник и авторство
E:\INTERNET\ Двойная игра.1998.DVDRip.[AVO] (Serbin).avi
General
Complete name : E:\INTERNET\ Двойная игра.1998.DVDRip.[AVO] (Serbin).avi
Format : AVI
Format/Info : Audio Video Interleave
File size : 950 MiB
Duration : 1h 29mn
Overall bit rate : 1 487 Kbps
Writing application : VirtualDubMod 1.5.10.3 (build 2550/release)
Writing library : VirtualDubMod build 2550/release
Video #0
ID : 0
Format : MPEG-4 Visual
Format profile : Advanced Simple@L5
Format settings, BVOP : 1
Format settings, QPel : No
Format settings, GMC : No warppoints
Format settings, Matrix : Custom
Codec ID : XVID
Codec ID/Hint : XviD
Duration : 1h 29mn
Bit rate : 1 286 Kbps
Width : 640 pixels
Height : 480 pixels
Display aspect ratio : 4:3
Frame rate : 25.000 fps
Color space : YUV
Chroma subsampling : 4:2:0
Bit depth : 8 bits
Scan type : Progressive
Compression mode : Lossy
Bits/(Pixel*Frame) : 0.167
Stream size : 821 MiB (86%)
Writing library : XviD 1.3.0.dev55
Audio #1
ID : 1
Format : AC-3
Format/Info : Audio Coding 3
Mode extension : CM (complete main)
Format settings, Endianness : Big
Codec ID : 2000
Duration : 1h 29mn
Bit rate mode : Constant
Bit rate : 192 Kbps
Channel(s) : 2 channels
Channel positions : Front: L R
Sampling rate : 48.0 KHz
Bit depth : 16 bits
Compression mode : Lossy
Stream size : 123 MiB (13%)
Alignment : Split accross interleaves
Interleave, duration : 40 ms (1.00 video frame)
Interleave, preload duration : 500 ms
Language : English




Скачать Двойная.игра.Out.of.Control.(Ричард.Тревор.Richard.Trevor).[1998.триллер.мелодрама.DVDRip].[AVO].(Ю.Сербин).torrent без регистрации
Золото ЗОЛОТАЯ РАЗДАЧА! СКАЧАННОЕ НЕ ЗАСЧИТЫВАЕТСЯ! Золото
Дата: Зарегистрирован   [ Тип: внутренний ] Как тут cкачать?
MAGNET ссылка
MAGNET ссылка


Скачать .torrent

19 KB

Статус: проверено DHT
Скачан: торрент - 125 раз, раздача полностью - 7 раз
Размер: 950 MB
Оценка:  5 (Голосов: 1)
Поблагодарили: 1
Поделиться ссылкой на эту раздачу с друзьями:
В контактеFacebookОдноклассникиTwitterLivejournalМой МирLiveinternet
 

 
Показать сообщения:    


Вы не можете начинать темы
Вы не можете отвечать на сообщения
Вы не можете редактировать свои сообщения
Вы не можете удалять свои сообщения
Вы не можете голосовать в опросах
Вы не можете прикреплять файлы к сообщениям
Вы можете скачивать файлы