Loading...
Error

Скачать Ле ман / Le Mans (Ли Х. Кацин / Lee H. Katzin) [1971, боевик, приключения, спорт, BDRip] [VO] (Film Prestige) торрент без регистрации

 
Статистика раздачи
Размер:  1,42 GB   |    Скачан:  101 раз
Сидов:  1  [  0 KB/s  ]  
 
Автор Сообщение

leon030982

[] 

Ле ман / Le Mans


Год выпуска: 1971
Страна: США
Жанр: боевик, приключения, спорт
Продолжительность: 01:48:41
Перевод: Профессиональный (одноголосый закадровый) [Film Prestige]
Cубтитры: нет

Режиссер: Ли Х. Кацин / Lee H. Katzin

В ролях: Стив МакКуин, Зигфрид Ройч, Эльга Андерсен, Рональд Ли-Хант, Люк Меренда, Кристофер Вейт, Анджело Инфанти

Описание: За «золото» Ле Мана сражаются немец Шталер на Ferrari и действующий чемпион - американец Майкл Делани на Gulf Porsche. 24-часовой марафон требует максимальной концентрации и всегда проходит на пике нервного напряжения.
А на этот раз Делани нервничает вдвойне: год назад по его вине на этой же трассе произошла серьезная авария, в которой погиб его друг Белгетти, пилот Ferrari. Перед началом гонки у Майкла был непростой разговор с Лизой, вдовой Белгетти... И теперь чемпион не может отделаться от странного предчувствия...




Качество видео: BDRip
Формат видео: AVI
Видео кодек: XviD
Аудио кодек: AC3
Видео: 720*304 (2.37), 23.976 fps, XviD MPEG-4, ~1469 kbps, 0.29 bit/pixel
Аудио: 48 kHz, AC3 Dolby Digital, 6 ch, ~384 kbps [Film Prestige]
General
Complete name : Le_Mans.avi
Format : AVI
Format/Info : Audio Video Interleave
File size : 1.42 GiB
Duration : 1h 48mn
Overall bit rate : 1 868 Kbps
Writing application : VirtualDubMod 1.5.10.2 (build 2540/release)
Writing library : VirtualDubMod build 2540/release
Video
ID : 0
Format : MPEG-4 Visual
Format profile : Advanced Simple@L5
Format settings, BVOP : 2
Format settings, QPel : No
Format settings, GMC : No warppoints
Format settings, Matrix : Default (H.263)
Muxing mode : Packed bitstream
Codec ID : XVID
Codec ID/Hint : XviD
Duration : 1h 48mn
Bit rate : 1 475 Kbps
Width : 720 pixels
Height : 304 pixels
Display aspect ratio : 2.35:1
Frame rate : 23.976 fps
Color space : YUV
Chroma subsampling : 4:2:0
Bit depth : 8 bits
Scan type : Progressive
Compression mode : Lossy
Bits/(Pixel*Frame) : 0.281
Stream size : 1.12 GiB (79%)
Writing library : XviD 1.2.1 (UTC 2008-12-04)
Audio
ID : 1
Format : AC-3
Format/Info : Audio Coding 3
Mode extension : CM (complete main)
Codec ID : 2000
Duration : 1h 48mn
Bit rate mode : Constant
Bit rate : 384 Kbps
Channel(s) : 6 channels
Channel positions : Front: L C R, Side: L R, LFE
Sampling rate : 48.0 KHz
Bit depth : 16 bits
Compression mode : Lossy
Stream size : 299 MiB (21%)
Alignment : Split accross interleaves
Interleave, duration : 42 ms (1.00 video frame)
Interleave, preload duration : 500 ms




Скачать Ле.ман.Le.Mans.(Ли.Х.Кацин.Lee.H.Katzin).[1971.боевик.приключения.спорт.BDRip].[VO].(Film.Prestige).torrent без регистрации
Золото ЗОЛОТАЯ РАЗДАЧА! СКАЧАННОЕ НЕ ЗАСЧИТЫВАЕТСЯ! Золото
Дата: Зарегистрирован   [ Тип: внутренний ] Как тут cкачать?
MAGNET ссылка
MAGNET ссылка


Скачать .torrent

15 KB

Статус: проверено DHT
Скачан: торрент - 101 раз, раздача полностью - 4 раз
Размер: 1,42 GB
Оценка:  5 (Голосов: 1)
Поблагодарили: 3
Поделиться ссылкой на эту раздачу с друзьями:
В контактеFacebookОдноклассникиTwitterLivejournalМой МирLiveinternet
 

 
Показать сообщения:    


Вы не можете начинать темы
Вы не можете отвечать на сообщения
Вы не можете редактировать свои сообщения
Вы не можете удалять свои сообщения
Вы не можете голосовать в опросах
Вы не можете прикреплять файлы к сообщениям
Вы можете скачивать файлы