Loading...
Error

Скачать Великолепный / Le Magnifique (Филипп де Брока) [1973, фэнтези, боевик, мелодрама, комедия, BDRip] [Dub] торрент без регистрации

 
Статистика раздачи
Размер:  1,46 GB   |    Скачан:  107 раз
Сидов:  1  [  0 KB/s  ]  
 
Автор Сообщение

МихаНЕзатор

[] 

Великолепный / Le Magnifique


Страна: Франция
Производство: Cerito Films, Les Films Ariane, Mondex Films, Oceania Produzioni Internazionali Cinematografiche, Rizzoli Film S.p.a.
Жанр: фэнтези, боевик, мелодрама, комедия
Год выпуска: 1973
Продолжительность: 01:33:57

Перевод: Профессиональный (дублированный) СССР "Ленфильм" со вставками DVO
Оригинальная аудиодорожка: нет
Cубтитры: нет

Режиссер: Филипп де Брока / Philippe de Broca

Роли озвучивали:
Жан-Поль Бельмондо, Жаклин Биссет, Витторио Каприоли, Ганс Мейер, Моник Тарбес, Марио Давид, Бруно Гарсен, Раймон Жером, Жан Лефевр, Фабрицио Мореско...
Роли дублировали:
Александр Демьяненко, Галина Чигинская, Зиновий Гердт, Игорь Ефимов, Алексей Кожевников...

Описание:
Франсуа Мерлен писатель криминальных рассказов. С точностью часового механизма он каждый месяц пишет новый роман для своего редактора Шаррона. Каждая история рассказывает об одном и том же герое Бобе Сен-Клере, влиятельном и лихом секретном агенте. Боб находит выход из любой ситуации. Время от времени ему удается выбраться из самой сложной ловушки. Это супермен, который может очаровать любую женщину. А единственное удовольствие в жизни Франсуа это его соседка Кристин, которую он иногда случайно видит из окна. С невероятной фантазией он решает отразить свою собственную жизнь в новой работе. Шаррон, его редактор, становится подлым Карлофом, главой секретной службы Албании, Кристин превращается в Татьяну, соблазнительную обольстительницу, которая помогает Бобу Сен-Клеру в его рискованных заданиях

Исходник: BDRemux 1080p
Тип релиза: BDRip
Контейнер: AVI

Видео: 720x416 (16:9), 24 fps, XviD ~ 2018 kbps avg, 0.281 bit/pixel
Аудио: 48 kHz, Dolby AC3 5.1, 448 kbps


Общее
Полное имя : Velikolepnyj.1973.BDRip_[Youtracker]_by_AVP Studio.avi
Формат : AVI
Формат/Информация : Audio Video Interleave
Размер файла : 1,46 Гбайт
Продолжительность : 1 ч. 33 м.
Общий поток : 2219 Кбит/сек
Программа кодирования : VirtualDubModRus 1.5.10.2 (build 2542/release)
Библиотека кодирования : VirtualDubMod build 2542/release

Видео
Идентификатор : 0
Формат : MPEG-4 Visual
Профиль формата : Advanced Simple@L5
Параметр BVOP формата : 1
Параметр QPel формата : Нет
Параметр GMC формата : Без точки перехода
Параметр матрицы формата : Выборочная
Идентификатор кодека : XVID
Идентификатор кодека/Подсказка : XviD
Продолжительность : 1 ч. 33 м.
Битрейт : 2018 Кбит/сек
Ширина : 720 пикселей
Высота : 416 пикселей
Соотношение сторон : 16:9
Частота кадров : 24,000 кадра/сек
Цветовое пространство : YUV
Субдискретизация насыщенности : 4:2:0
Битовая глубина : 8 бит
Тип развёртки : Прогрессивная
Метод сжатия : С потерями
Бит/(Пиксели*Кадры) : 0.281
Размер потока : 1,32 Гбайт (91%)
Библиотека кодирования : XviD 65

Аудио
Идентификатор : 1
Формат : AC-3
Формат/Информация : Audio Coding 3
Расширение режима : CM (complete main)
Идентификатор кодека : 2000
Продолжительность : 1 ч. 33 м.
Вид битрейта : Постоянный
Битрейт : 192 Кбит/сек
Каналы : 2 канала
Расположение каналов : Front: L R
Частота : 48,0 КГц
Битовая глубина : 16 бит
Метод сжатия : С потерями
Размер потока : 129 Мбайт (9%)
Выравнивание : Разделение по промежуткам
Продолжительность промежутка : 42 мс. (1,00 видеокадр)
Время предзагрузки промежутка : 500 мс



Скачать Великолепный.Le.Magnifique.(Филипп.де.Брока).[1973.фэнтези.боевик.мелодрама.комедия.BDRip].[Dub].torrent без регистрации
Золото ЗОЛОТАЯ РАЗДАЧА! СКАЧАННОЕ НЕ ЗАСЧИТЫВАЕТСЯ! Золото
Дата: Зарегистрирован   [ Тип: внутренний ] Как тут cкачать?
MAGNET ссылка
MAGNET ссылка


Скачать .torrent

15 KB

Статус: проверено DHT
Скачан: торрент - 107 раз, раздача полностью - 14 раз
Размер: 1,46 GB
Оценка:  5 (Голосов: 2)
Поблагодарили: 2
Поделиться ссылкой на эту раздачу с друзьями:
В контактеFacebookОдноклассникиTwitterLivejournalМой МирLiveinternet
 

 
Показать сообщения:    


Вы не можете начинать темы
Вы не можете отвечать на сообщения
Вы не можете редактировать свои сообщения
Вы не можете удалять свои сообщения
Вы не можете голосовать в опросах
Вы не можете прикреплять файлы к сообщениям
Вы можете скачивать файлы