Loading...
Error

/ EdTV ( / Ron Howard) [1999, , HDTVRip] [DVO] ( )

 
1,46 GB   |    :  5354
1  [  0 KB/s  ]  
 

leon030982

[] 

/ EdTV

The story of a nobody everybody is watching

: 1999
:
:
: 01:57:57
: (, ) [ ]
:
: / Ron Howard

: , , , ʸ, , , , , , .
: , -. , . , , .
24 : , , , . , ,

: $80 000 000
: $22 431 897 | : + $12 811 000 = $35 242 897
MPAA: PG-13 ( 13 !)

: HDTVRip
: AVI
: XviD
: AC3
: 688x384 (1.79:1), 25 fps, XviD build 73 ~1565 kbps avg, 0.24 bit/pixel
: 48 kHz, AC3 Dolby Digital, 2/0 (L,R) ch, ~192.00 kbps

:

General
Complete name : C:\Edtv.1999.HDTV.1080i\BDMV\STREAM\Ed_iz_televizora.1999.EdTVRip.avi
Format : AVI
Format/Info : Audio Video Interleave
File size : 1.46 GiB
Duration : 1h 57mn
Overall bit rate : 1 768 Kbps
Movie name : EdTV (1999) - HDTVRip by Juvelir
Writing application : VirtualDubMod 1.5.10.3 (build 2550/release)
Video
ID : 0
Format : MPEG-4 Visual
Format profile : Advanced Simple@L5
Format settings, BVOP : 1
Format settings, QPel : No
Format settings, GMC : No warppoints
Format settings, Matrix : Custom
Codec ID : XVID
Codec ID/Hint : XviD
Duration : 1h 57mn
Bit rate : 1 566 Kbps
Width : 688 pixels
Height : 384 pixels
Display aspect ratio : 16:9
Frame rate : 25.000 fps
Color space : YUV
Chroma subsampling : 4:2:0
Bit depth : 8 bits
Scan type : Progressive
Compression mode : Lossy
Bits/(Pixel*Frame) : 0.237
Stream size : 1.29 GiB (89%)
Writing library : XviD 73
Audio
ID : 1
Format : AC-3
Format/Info : Audio Coding 3
Mode extension : CM (complete main)
Format settings, Endianness : Big
Codec ID : 2000
Duration : 1h 57mn
Bit rate mode : Constant
Bit rate : 192 Kbps
Channel(s) : 2 channels
Channel positions : Front: L R
Sampling rate : 48.0 KHz
Bit depth : 16 bits
Compression mode : Lossy
Stream size : 162 MiB (11%)
Alignment : Split accross interleaves
Interleave, duration : 40 ms (1.00 video frame)
Interleave, preload duration : 500 ms
Title : DVO ( )



...EdTV.(..Ron.Howard).[1999..HDTVRip].[DVO].(..).torrent
  ! ! 
:   [ : ] c?
MAGNET
MAGNET


.torrent

30 KB

: DHT
: - 5354 , - 13
: 1,46 GB
- (: 0)
: 2
:
 FacebookTwitterLivejournal Liveinternet
 

 
: