Loading...
Error

Скачать Великолепный / Le Magnifique (Филипп де Брока) [1973, фэнтези, боевик, мелодрама, комедия, BDRip-AVC] [Dub] торрент без регистрации

 
Статистика раздачи
Размер:  1,46 GB   |    Скачан:  112 раз
Сидов:  1  [  0 KB/s  ]  
 
Автор Сообщение

МихаНЕзатор

[] 

Великолепный / Le Magnifique


Страна: Франция
Производство: Cerito Films, Les Films Ariane, Mondex Films, Oceania Produzioni Internazionali Cinematografiche, Rizzoli Film S.p.a.
Жанр: фэнтези, боевик, мелодрама, комедия
Год выпуска: 1973
Продолжительность: 01:33:57

Перевод: Профессиональный (дублированный) СССР "Ленфильм" со вставками DVO
Оригинальная аудиодорожка: нет
Cубтитры: русский, французский, английский, чешский

Режиссер: Филипп де Брока / Philippe de Broca

Роли озвучивали:
Жан-Поль Бельмондо, Жаклин Биссет, Витторио Каприоли, Ганс Мейер, Моник Тарбес, Марио Давид, Бруно Гарсен, Раймон Жером, Жан Лефевр, Фабрицио Мореско...
Роли дублировали:
Александр Демьяненко, Галина Чигинская, Зиновий Гердт, Игорь Ефимов, Алексей Кожевников...

Описание:
Франсуа Мерлен писатель криминальных рассказов. С точностью часового механизма он каждый месяц пишет новый роман для своего редактора Шаррона. Каждая история рассказывает об одном и том же герое Бобе Сен-Клере, влиятельном и лихом секретном агенте. Боб находит выход из любой ситуации. Время от времени ему удается выбраться из самой сложной ловушки. Это супермен, который может очаровать любую женщину. А единственное удовольствие в жизни Франсуа это его соседка Кристин, которую он иногда случайно видит из окна. С невероятной фантазией он решает отразить свою собственную жизнь в новой работе. Шаррон, его редактор, становится подлым Карлофом, главой секретной службы Албании, Кристин превращается в Татьяну, соблазнительную обольстительницу, которая помогает Бобу Сен-Клеру в его рискованных заданиях

Исходник: BDRemux 1080p
Тип релиза: BDRip-AVC
Контейнер: MKV

Видео: 1024x592 (16:9), 24 fps, H264 ~ 2024 kbps avg, 0.139 bit/pixel
Аудио: 48 kHz, Dolby AC3 2.0, 192 kbps


Общее
Полное имя : Velikolepnyj.1973.BDRip-AVC_[Youtracker]_by_AVP Studio.mkv
Формат : Matroska
Версия формата : Version 4 / Version 2
Размер файла : 1,46 Гбайт
Продолжительность : 1 ч. 33 м.
Общий поток : 2218 Кбит/сек
Название фильма : Velikolepnyj.1973.BDRip-AVC_[Youtracker]_by_AVP Studio
Дата кодирования : UTC 2013-07-30 15:03:24
Программа кодирования : mkvmerge v6.3.0 ('You can't stop me!') built on Jun 27 2013 22:06:07
Библиотека кодирования : libebml v1.3.0 + libmatroska v1.4.0

Видео
Идентификатор : 1
Формат : AVC
Формат/Информация : Advanced Video Codec
Профиль формата : High@L4.1
Параметр CABAC формата : Да
Параметр ReFrames формата : 11 кадров
Идентификатор кодека : V_MPEG4/ISO/AVC
Продолжительность : 1 ч. 33 м.
Битрейт : 2024 Кбит/сек
Ширина : 1024 пикселя
Высота : 592 пикселя
Соотношение сторон : 16:9
Частота кадров : 24,000 кадра/сек
Цветовое пространство : YUV
Субдискретизация насыщенности : 4:2:0
Битовая глубина : 8 бит
Тип развёртки : Прогрессивная
Бит/(Пиксели*Кадры) : 0.139
Размер потока : 1,30 Гбайт (89%)
Заголовок : Источник BDRemux
Библиотека кодирования : x264 core 130 r2273 b3065e6
Настройки программы : cabac=1 / ref=11 / deblock=1:-3:-2 / analyse=0x3:0x113 / me=umh / subme=11 / psy=1 / psy_rd=1.00:0.10 / mixed_ref=1 / me_range=32 / chroma_me=1 / trellis=2 / 8x8dct=1 / cqm=0 / deadzone=21,11 / fast_pskip=0 / chroma_qp_offset=-3 / threads=3 / lookahead_threads=1 / sliced_threads=0 / nr=0 / decimate=1 / interlaced=0 / bluray_compat=0 / constrained_intra=0 / bframes=10 / b_pyramid=2 / b_adapt=1 / b_bias=0 / direct=3 / weightb=1 / open_gop=0 / weightp=2 / keyint=240 / keyint_min=23 / scenecut=40 / intra_refresh=0 / rc_lookahead=60 / rc=2pass / mbtree=1 / bitrate=2024 / ratetol=1.0 / qcomp=0.60 / qpmin=0 / qpmax=69 / qpstep=4 / cplxblur=20.0 / qblur=0.5 / ip_ratio=1.40 / aq=1:1.00
Язык : French
Default : Да
Forced : Нет

Аудио
Идентификатор : 2
Формат : AC-3
Формат/Информация : Audio Coding 3
Расширение режима : CM (complete main)
Идентификатор кодека : A_AC3
Продолжительность : 1 ч. 33 м.
Вид битрейта : Постоянный
Битрейт : 192 Кбит/сек
Каналы : 2 канала
Расположение каналов : Front: L R
Частота : 48,0 КГц
Битовая глубина : 16 бит
Метод сжатия : С потерями
Размер потока : 129 Мбайт (9%)
Заголовок : Источник BDRemux Dolby Digital 2,0
Язык : Russian
Default : Да
Forced : Нет

Текст #1
Идентификатор : 3
Формат : UTF-8
Идентификатор кодека : S_TEXT/UTF8
Идентификатор кодека/Информация : UTF-8 Plain Text
Заголовок : Источник BDRemux SRT
Язык : Russian
Default : Нет
Forced : Нет

Текст #2
Идентификатор : 4
Формат : UTF-8
Идентификатор кодека : S_TEXT/UTF8
Идентификатор кодека/Информация : UTF-8 Plain Text
Заголовок : Источник BDRemux SRT
Язык : French
Default : Нет
Forced : Нет

Текст #3
Идентификатор : 5
Формат : UTF-8
Идентификатор кодека : S_TEXT/UTF8
Идентификатор кодека/Информация : UTF-8 Plain Text
Заголовок : Источник BDRemux SRT
Язык : English
Default : Нет
Forced : Нет

Текст #4
Идентификатор : 6
Формат : UTF-8
Идентификатор кодека : S_TEXT/UTF8
Идентификатор кодека/Информация : UTF-8 Plain Text
Заголовок : Источник BDRemux SRT
Язык : Czech
Default : Нет
Forced : Нет

Меню
00:00:00.000 : en:Going Up!; Main Title
00:08:29.083 : en:Calling Bob St. Clare
00:16:03.333 : en:Southern Exposure
00:23:18.500 : en:The Real World
00:30:54.958 : en:Our Story Continues
00:40:25.250 : en:Tapping in the Dark
00:46:25.875 : en:A Psychoanalytical Standpoint
00:55:43.083 : en:A Real Man
01:02:50.542 : en:An Old-Fashioned Girl
01:10:20.042 : en:One of the Boys
01:17:46.583 : en:The Final Chapter
01:29:33.542 : en:End Credits



Скачать Великолепный.Le.Magnifique.(Филипп.де.Брока).[1973.фэнтези.боевик.мелодрама.комедия.BDRip-AVC].[Dub].torrent без регистрации
Золото ЗОЛОТАЯ РАЗДАЧА! СКАЧАННОЕ НЕ ЗАСЧИТЫВАЕТСЯ! Золото
Дата: Зарегистрирован   [ Тип: внутренний ] Как тут cкачать?
MAGNET ссылка
MAGNET ссылка


Скачать .torrent

15 KB

Статус: проверено DHT
Скачан: торрент - 112 раз, раздача полностью - 22 раз
Размер: 1,46 GB
Оценка:  5 (Голосов: 2)
Поблагодарили: 4
Поделиться ссылкой на эту раздачу с друзьями:
В контактеFacebookОдноклассникиTwitterLivejournalМой МирLiveinternet
 

 
Показать сообщения:    


Вы не можете начинать темы
Вы не можете отвечать на сообщения
Вы не можете редактировать свои сообщения
Вы не можете удалять свои сообщения
Вы не можете голосовать в опросах
Вы не можете прикреплять файлы к сообщениям
Вы можете скачивать файлы