Loading...
Error

Скачать Каникулы для гангстера / Vacanze col gangster (Дино Ризи / Dino Risi) [1954, комедия, TVRip] [AVO] (Ю.Медведев) торрент без регистрации

 
Статистика раздачи
Размер:  1,02 GB   |    Скачан:  115 раз

Полного источника не было: 30 минут

 
Автор Сообщение

leon030982

[] 

Каникулы для гангстера / Vacanze col gangster


Год выпуска: 1954
Страна: Италия
Жанр: комедия
Продолжительность: 01:10:45
Перевод: Авторский (одноголосый закадровый) [Ю.Медведев]
Cубтитры: английские
Оригинальная аудиодорожка: итальянский

Режиссер: Дино Ризи / Dino Risi

В ролях: Марк Лоуренс, Джованна Пала, Теренс Хилл, Ламберто Маджорани, Gaetano Pessina, Лучиано Карузо, Alfredo Baldieri, Антонио Бакчи, Дина Пербеллини, Анна Арена

Описание: Во время летних каникул пятеро школьников находят записку, автор которой сидит в тюрьме и утверждает, что осужден незаконно. Ребята разрабатывают план, чтобы помочь ему бежать. Записка, адресованная заключенному № 5823, запеченная в пироге, случайно попадает к заключенному № 6211, который на самом деле является гангстером и осужден вполне обосновано. Дружки гангстера сами в это же время планируют организовать для него побег... А далее история развивается по законам криминально-комедийного жанра. В роли одного из школьников снялся Теренс Хилл, в те годы выступавший под своим настоящим именем - Марио Джиротти.



Качество видео: TVRip
Формат видео: AVI
Видео кодек: XviD
Аудио кодек: MP3
Видео: 720x576 (1.25:1), 25 fps, XviD build 50 ~1809 kbps avg, 0.17 bit/pixel
Аудио: 44.100 kHz, MPEG Layer 3, 2 ch, ~256.00 kbps avg [Ю.Медведев]

Автор рипа: Kn15
За основу данной сборки взят TVRip автора под ником rulle1.
Перевод на русский язык Ю.Медведева.
E:\INTERNET\ Каникулы для гангстера.1954.TVRip.[AVO].avi
General
Complete name : E:\INTERNET\ Каникулы для гангстера.1954.TVRip.[AVO].avi
Format : AVI
Format/Info : Audio Video Interleave
Format profile : OpenDML
File size : 1.02 GiB
Duration : 1h 10mn
Overall bit rate : 2 072 Kbps
Writing application : Lavf52.93.0
Video #0
ID : 0
Format : xvid
Codec ID : xvid
Duration : 1h 10mn
Bit rate : 1 800 Kbps
Width : 720 pixels
Height : 576 pixels
Display aspect ratio : 4:3
Frame rate : 25.000 fps
Standard : PAL
Bits/(Pixel*Frame) : 0.174
Stream size : 911 MiB (87%)
Audio #1
ID : 1
Format : MPEG Audio
Format version : Version 1
Format profile : Layer 3
Mode : Joint stereo
Mode extension : MS Stereo
Codec ID : 55
Codec ID/Hint : MP3
Duration : 1h 10mn
Bit rate mode : Constant
Bit rate : 256 Kbps
Channel(s) : 2 channels
Sampling rate : 44.1 KHz
Compression mode : Lossy
Stream size : 130 MiB (12%)
Alignment : Aligned on interleaves
Interleave, duration : 26 ms (0.65 video frame)




Скачать Каникулы.для.гангстера.Vacanze.col.gangster.(Дино.Ризи.Dino.Risi).[1954.комедия.TVRip].[AVO].(Ю.Медведев).torrent без регистрации
Золото ЗОЛОТАЯ РАЗДАЧА! СКАЧАННОЕ НЕ ЗАСЧИТЫВАЕТСЯ! Золото
Дата: Зарегистрирован   [ Тип: внутренний ] Как тут cкачать?
MAGNET ссылка
MAGNET ссылка


Скачать .torrent

11 KB

Статус: проверено DHT
Скачан: торрент - 115 раз, раздача полностью - 5 раз
Размер: 1,02 GB
Оценка:  - (Голосов: 0)
Поблагодарили: 2
Поделиться ссылкой на эту раздачу с друзьями:
В контактеFacebookОдноклассникиTwitterLivejournalМой МирLiveinternet
 

 
Показать сообщения:    


Вы не можете начинать темы
Вы не можете отвечать на сообщения
Вы не можете редактировать свои сообщения
Вы не можете удалять свои сообщения
Вы не можете голосовать в опросах
Вы не можете прикреплять файлы к сообщениям
Вы можете скачивать файлы