Loading...
Error

Скачать Альф / Alf (Том Пэтчетт / Tom Patchett, Питер Бонерц / Peter Bonerz) (Сезон 01-04, серии 01-102 из 102 + Unaired Pilot + ALF Loves A Mystery) [1986, Фантастика, комедия, драма, семейный, DVDRip] [Неурезанная версия / Uncut Version] 3x[MVO] торрент без регистрации

 
Статистика раздачи
Размер:  36,36 GB   |    Скачан:  258 раз
Сидов:  1  [  0 KB/s  ]  
 
Автор Сообщение

leon030982

[] 

Альф / Alf / Сезон 01-04, серии 01-102 из 102 + Unaired Pilot + ALF Loves A Mystery



Год выпуска: 1986
Страна: США
Жанр: комедия
Продолжительность:
1 серия: ~00:27:00
2-102 серии: ~00:25:00
Special.Original.Unaired.Pilot : ~ 00:23:00
ALF Loves A Mystery: ~00:24:44
Перевод:
Перевод 1: Профессиональный (многоголосый закадровый, киностудия «Фильм-экспорт» по заказу СТС)
Перевод 2: Профессиональный (многоголосый закадровый) «AB-video» по заказу ОРТ (Данная озвучка отсутствует в 18 и 19 серии Второго сезона)
Перевод 3: Профессиональный (многоголосый закадровый) телекомпания ICTV
Перевод 4: Оригинальная Английская дорожка (Полное дублирование) - ENG
Перевод 5: Оригинальная Немецкая дорожка (Полное дублирование) - GER
Перевод 6: Польская дорожка (Одноголосный закадровый) - PL
Перевод 7: Французская дорожка (Полное дублирование) - French
Перевод 8: Латино дорожка (Полное дублирование) - LAT
Перевод 9: Испанская дорожка (Полное дублирование) - SPA

Русские субтитры: нет

Режиссер: Гэри Шимокава (Gary Shimokawa), Ник Хавинга (Nick Havinga), Барт Бринкерхофф (Burt Brinckerhoff), Питер Бонерц (Peter Bonerz), Пол Миллер (Paul Miller), Том Пэтчетт (Tom Patchett)

В ролях: Макс Райт (Max Wright), Энн Шеден (Anne Schedeen), Андреа Элсон (Andrea Elson), Бенджи Грегори (Benji Gregory), Джон ЛаМотта (John LaMotta), Лиз Шеридан (Liz Sheridan), Джош Блэйк (Josh Blake), Дж.М. Дж. Баллок (JM J. Bullock), Пол Фаско (Paul Fusco) - Альф

Описание: Его родина - планета Мелмак, место жительства - Лос-Анджелес. Он самоуверен, капризен и жаден. Он порядочный обжора, грубиян и ворчун. Он обожает кошек (в кулинарном смысле), его любопытство не знает границ, а разрушительные способности поражают воображение. НО помыслы его чисты, душа открыта, а сердце отзывчиво. Короче, он - самый очаровательный персонаж комедийных сериалов. Он - Альф! Ему больше 200 лет. Вы скажете он стар? Нет! Он - SUPER STAR!!!



Видео : Xvid | 592x448 | 25fps | ~1000kbps - 1-102 серии
Видео : Xvid | 432x320 | 25fps | ~1000kbps - Special.Original.Unaired.Pilot
Видео : Xvid | 464x348 | 25fps | ~1000kbps - ALF Loves A Mystery:
Аудио 1: Mp3 | 48000Hz | 128kb/sek | [Stereo - СТС]
Аудио 2: Mp3 | 48000Hz | 128kb/sek | [Stereo - ОРТ]
Аудио 3: Mp3 | 48000Hz | 128kb/sek | [Stereo - ICTV]
Аудио 4: Mp3 | 48000Hz | 76kb/sek | [Mono - ENG]
Аудио 5: Mp3 | 48000Hz | 128kb/sek | [Stereo - GER]
Аудио 6: Mp3 | 48000Hz | 128kb/sek | [Stereo - PL]
Аудио 7: Mp3 | 48000Hz | 128kb/sek | [Stereo - FR]
Аудио 8: Mp3 | 48000Hz | 128kb/sek | [Stereo - Latino]
Аудио 9: Mp3 | 48000Hz | 128kb/sek | [Stereo - SPA]
Все иностранные дорожки синхронил и искал сам ! Дорожка СТС и ОРТ взята из этих раздач Озвучка ОРТ и Озвучка СТС Так что если найдёте рассинхрон пишите в личку исправлю ! Добавлено Special Unaired Pilot episode + ALF Loves A Mystery - в них оригинальная английская дорожка ! Также увеличена по времени первая серия путём добавления эпизода из Unaired Pilot ! Серия шоу альфа увеличена засчёт сравнения французкой версии сериала с английской ! Испанская озвучка отсутствует в первом сезоне ! Также добавлена видюшка как снимался сериал
General
Complete name : H:\Альф Uncut Version\Сезон 2\Серия 1 - Туда и обратно.avi
Format : AVI
Format/Info : Audio Video Interleave
File size : 362 MiB
Duration : 24mn 27s
Overall bit rate mode : Variable
Overall bit rate : 2 068 Kbps
Movie name : Серия 1 - Туда и обратно
Writing application : VirtualDubMod 1.5.10.2 (build 2540/release)
Writing library : VirtualDubMod build 2540/release

Video
ID : 0
Format : MPEG-4 Visual
Format profile : Advanced Simple@L5
Format settings, BVOP : 2
Format settings, QPel : No
Format settings, GMC : No warppoints
Format settings, Matrix : Default (H.263)
Muxing mode : Packed bitstream
Codec ID : XVID
Codec ID/Hint : XviD
Duration : 24mn 27s
Bit rate : 885 Kbps
Width : 592 pixels
Height : 448 pixels
Display aspect ratio : 4:3
Frame rate : 25.000 fps
Color space : YUV
Chroma subsampling : 4:2:0
Bit depth : 8 bits
Scan type : Progressive
Compression mode : Lossy
Bits/(Pixel*Frame) : 0.133
Stream size : 155 MiB (43%)
Writing library : XviD 64

Audio #1
ID : 1
Format : MPEG Audio
Format version : Version 1
Format profile : Layer 3
Codec ID : 55
Codec ID/Hint : MP3
Duration : 24mn 27s
Bit rate mode : Constant
Bit rate : 128 Kbps
Channel(s) : 2 channels
Sampling rate : 48.0 KHz
Compression mode : Lossy
Stream size : 22.4 MiB (6%)
Alignment : Aligned on interleaves
Interleave, duration : 40 ms (1.00 video frame)
Interleave, preload duration : 504 ms

Audio #2
ID : 2
Format : MPEG Audio
Format version : Version 1
Format profile : Layer 3
Codec ID : 55
Codec ID/Hint : MP3
Duration : 24mn 27s
Bit rate mode : Constant
Bit rate : 128 Kbps
Channel(s) : 2 channels
Sampling rate : 48.0 KHz
Compression mode : Lossy
Stream size : 22.4 MiB (6%)
Alignment : Aligned on interleaves
Interleave, duration : 40 ms (1.00 video frame)
Interleave, preload duration : 504 ms

Audio #3
ID : 3
Format : MPEG Audio
Format version : Version 1
Format profile : Layer 3
Codec ID : 55
Codec ID/Hint : MP3
Duration : 24mn 27s
Bit rate mode : Constant
Bit rate : 128 Kbps
Channel(s) : 2 channels
Sampling rate : 48.0 KHz
Compression mode : Lossy
Stream size : 22.4 MiB (6%)
Alignment : Aligned on interleaves
Interleave, duration : 40 ms (1.00 video frame)
Interleave, preload duration : 504 ms

Audio #4
ID : 4
Format : MPEG Audio
Format version : Version 1
Format profile : Layer 3
Mode : Joint stereo
Mode extension : MS Stereo
Codec ID : 55
Codec ID/Hint : MP3
Duration : 24mn 27s
Bit rate mode : Variable
Bit rate : 108 Kbps
Minimum bit rate : 32.0 Kbps
Channel(s) : 2 channels
Sampling rate : 48.0 KHz
Compression mode : Lossy
Stream size : 18.8 MiB (5%)
Alignment : Aligned on interleaves
Interleave, duration : 24 ms (0.60 video frame)
Interleave, preload duration : 171 ms
Writing library : LAME3.99
Encoding settings : -m j -V 4 -q 0 -lowpass 17.5 --vbr-new -b 32

Audio #5
ID : 5
Format : MPEG Audio
Format version : Version 1
Format profile : Layer 3
Codec ID : 55
Codec ID/Hint : MP3
Duration : 24mn 27s
Bit rate mode : Constant
Bit rate : 128 Kbps
Channel(s) : 2 channels
Sampling rate : 48.0 KHz
Compression mode : Lossy
Stream size : 22.4 MiB (6%)
Alignment : Aligned on interleaves
Interleave, duration : 40 ms (1.00 video frame)
Interleave, preload duration : 504 ms

Audio #6
ID : 6
Format : MPEG Audio
Format version : Version 1
Format profile : Layer 3
Codec ID : 55
Codec ID/Hint : MP3
Duration : 24mn 27s
Bit rate mode : Constant
Bit rate : 128 Kbps
Channel(s) : 2 channels
Sampling rate : 48.0 KHz
Compression mode : Lossy
Stream size : 22.4 MiB (6%)
Alignment : Aligned on interleaves
Interleave, duration : 40 ms (1.00 video frame)
Interleave, preload duration : 504 ms

Audio #7
ID : 7
Format : MPEG Audio
Format version : Version 1
Format profile : Layer 3
Codec ID : 55
Codec ID/Hint : MP3
Duration : 24mn 27s
Bit rate mode : Constant
Bit rate : 128 Kbps
Channel(s) : 2 channels
Sampling rate : 48.0 KHz
Compression mode : Lossy
Stream size : 22.4 MiB (6%)
Alignment : Aligned on interleaves
Interleave, duration : 40 ms (1.00 video frame)
Interleave, preload duration : 504 ms

Audio #8
ID : 8
Format : MPEG Audio
Format version : Version 1
Format profile : Layer 3
Codec ID : 55
Codec ID/Hint : MP3
Duration : 24mn 27s
Bit rate mode : Constant
Bit rate : 128 Kbps
Channel(s) : 2 channels
Sampling rate : 48.0 KHz
Compression mode : Lossy
Stream size : 22.4 MiB (6%)
Alignment : Aligned on interleaves
Interleave, duration : 40 ms (1.00 video frame)
Interleave, preload duration : 504 ms

Audio #9
ID : 9
Format : MPEG Audio
Format version : Version 1
Format profile : Layer 3
Codec ID : 55
Codec ID/Hint : MP3
Duration : 24mn 27s
Bit rate mode : Constant
Bit rate : 128 Kbps
Channel(s) : 2 channels
Sampling rate : 48.0 KHz
Compression mode : Lossy
Stream size : 22.4 MiB (6%)
Alignment : Aligned on interleaves
Interleave, duration : 40 ms (1.00 video frame)
Interleave, preload duration : 504 ms




Скачать Альф.Alf.(Том.Пэтчетт.Tom.Patchett.Питер.Бонерц.Peter.Bonerz).(Сезон.01-04.серии.01-102.из.102.+.Unaired.Pilot.+.ALF.Loves.A.Mystery).[1986.Фантастика.комедия.драма.семейный.DVDRip].[Неурезанная.версия.Uncut.Version].3x[MVO].torrent без регистрации
Золото ЗОЛОТАЯ РАЗДАЧА! СКАЧАННОЕ НЕ ЗАСЧИТЫВАЕТСЯ! Золото
Дата: Зарегистрирован   [ Тип: внутренний ] Как тут cкачать?
MAGNET ссылка
MAGNET ссылка


Скачать .torrent

192 KB

Статус: проверено DHT
Скачан: торрент - 258 раз, раздача полностью - 107 раз
Размер: 36,36 GB
Оценка:  5 (Голосов: 2)
Поблагодарили: 6
Поделиться ссылкой на эту раздачу с друзьями:
В контактеFacebookОдноклассникиTwitterLivejournalМой МирLiveinternet
 

 

leon030982

[] 

Код:

Торрент файл обновлён !
1. Добавлена недостающая озвучка ОРТ(Первого канала) на серии в которых её нет !
2. Объединены 2 серии второго сезона "Кто нибудь присмотрите за мной" в одну .... !
3. Полностью переработаны 6 серия - 1 сезона и 2 серия - 2 сезона !
4. Заменена озвучка ОРТ в 10 серии и частично в 18 серии - 3 сезона !
 
Показать сообщения:    


Вы не можете начинать темы
Вы не можете отвечать на сообщения
Вы не можете редактировать свои сообщения
Вы не можете удалять свои сообщения
Вы не можете голосовать в опросах
Вы не можете прикреплять файлы к сообщениям
Вы можете скачивать файлы