Loading...
Error

Скачать Кровавый кулак 8: Обученный убивать / Bloodfist VIII: Trained to Kill (Рик Джекобсон / Rick Jacobson) [1996, боевик, DVDRip] [AVO] (Ю.Сербин) торрент без регистрации

 
Статистика раздачи
Размер:  746 MB   |    Скачан:  219 раз
Сидов:  1  [  0 KB/s  ]  
 
Автор Сообщение

leon030982

[] 

Кровавый кулак 8: Обученный убивать / Bloodfist VIII: Trained to Kill


Год выпуска: 1996
Страна: США
Студия: Concorde Pictures
Жанр: боевик
Продолжительность: 01:23:59
Перевод: Авторский (одноголосный, закадровый) [Ю.Сербин]
Cубтитры: нет

Режиссер: Рик Джекобсон / Rick Jacobson

В ролях: Дон "Дракон" Уилсон, Джиллиан Макуиртер, Джон Патрик, Уоррен Бертон, Донни Хэйр, Ричард Фаррелл, Джон МакХью, Конор Нолан, Брендан Мюррэй, Майк О’Мэхони

Описание: Вдовец-учитель Рик Коуэн регулярно выясняет отношения со своим сыном-тинейджером Крисом, и отпрыск-оболтус явно считает папашу типичным неудачником.
Но однажды на дом Коуэна внезапно нападает целая банда вооруженных головорезов, с которой Рик все же удачно «разбирается», после чего Крис узнает, что его отец — ушедший в подполье агент ЦРУ Джордж МакРэди, специалист по особо опасным и особо секретным операциям.
Отец и сын едут в Ирландию, где бывший коллега Коуэна/МакРэди рассказывает, что их начальники Майкл Пауэлл и Эмерик Прессбургер отдали наемным киллерам приказ ликвидировать агента, поскольку он слишком много знает. Однако не только киллеры умеют убивать: Джордж МакРэди был обучен этому ремеслу лучше, чем кто бы то ни было…




Качество: DVDRip
Формат: AVI
Видео кодек: XviD
Аудио кодек: AC3
Видео: 576x432 (1.33:1), 23.976 fps, XviD build 50 ~1041 kbps avg, 0.17 bit/pixel
Аудио: 48 kHz, AC3 Dolby Digital, 2/0 (L,R) ch, ~192.00 kbps avg
Дорожка с Ю. Сербиным синхронизирована, ремастирована и наложена ale_x2008 при помощи Adobe Audition, Sony Vegas и VirtualDubMod.
За оцифрованную с VHS дорожку благодарим - denis_mgn_1987 и за активное участие Sergunka172
Релиз является эксклюзивом для экс юа, при выкладывании на других ресурсах просьба указывать первоисточник и авторство.
E:\INTERNET\Bloodfist VIII - Trained to Kill.1996.DVDRip.[AVO] [Serbin].avi
General
Complete name : E:\INTERNET\Bloodfist VIII - Trained to Kill.1996.DVDRip.[AVO] [Serbin].avi
Format : AVI
Format/Info : Audio Video Interleave
File size : 746 MiB
Duration : 1h 23mn
Overall bit rate : 1 243 Kbps
Writing application : VirtualDubMod 1.5.10.3 (build 2550/release)
Writing library : VirtualDubMod build 2550/release
Video #0
ID : 0
Format : MPEG-4 Visual
Format profile : Advanced Simple@L5
Format settings, BVOP : 1
Format settings, QPel : No
Format settings, GMC : No warppoints
Format settings, Matrix : Custom
Codec ID : XVID
Codec ID/Hint : XviD
Duration : 1h 23mn
Bit rate : 1 041 Kbps
Width : 576 pixels
Height : 432 pixels
Display aspect ratio : 4:3
Frame rate : 23.976 fps
Color space : YUV
Chroma subsampling : 4:2:0
Bit depth : 8 bits
Scan type : Progressive
Compression mode : Lossy
Bits/(Pixel*Frame) : 0.175
Stream size : 625 MiB (84%)
Writing library : XviD 1.2.1 (UTC 2008-12-04)
Audio #1
ID : 1
Format : AC-3
Format/Info : Audio Coding 3
Mode extension : CM (complete main)
Format settings, Endianness : Big
Codec ID : 2000
Duration : 1h 23mn
Bit rate mode : Constant
Bit rate : 192 Kbps
Channel(s) : 2 channels
Channel positions : Front: L R
Sampling rate : 48.0 KHz
Bit depth : 16 bits
Compression mode : Lossy
Stream size : 115 MiB (15%)
Alignment : Split accross interleaves
Interleave, duration : 42 ms (1.00 video frame)
Interleave, preload duration : 500 ms
Language : English




Скачать Кровавый.кулак.8.Обученный.убивать.Bloodfist.VIII.Trained.to.Kill.(Рик.Джекобсон.Rick.Jacobson).[1996.боевик.DVDRip].[AVO].(Ю.Сербин).torrent без регистрации
Золото ЗОЛОТАЯ РАЗДАЧА! СКАЧАННОЕ НЕ ЗАСЧИТЫВАЕТСЯ! Золото
Дата: Зарегистрирован   [ Тип: внутренний ] Как тут cкачать?
MAGNET ссылка
MAGNET ссылка


Скачать .torrent

15 KB

Статус: проверено DHT
Скачан: торрент - 219 раз, раздача полностью - 14 раз
Размер: 746 MB
Оценка:  - (Голосов: 0)
Поблагодарили: 1
Поделиться ссылкой на эту раздачу с друзьями:
В контактеFacebookОдноклассникиTwitterLivejournalМой МирLiveinternet
 

 
Показать сообщения:    


Вы не можете начинать темы
Вы не можете отвечать на сообщения
Вы не можете редактировать свои сообщения
Вы не можете удалять свои сообщения
Вы не можете голосовать в опросах
Вы не можете прикреплять файлы к сообщениям
Вы можете скачивать файлы