Loading...
Error

Скачать Электра / Elektra (Роб Боуман) [2005, фэнтези, боевик, триллер, криминал, BDRip-AVC] [Dub] [Лицензия] торрент без регистрации

 
Статистика раздачи
Размер:  1,46 GB   |    Скачан:  117 раз
Сидов:  1  [  0 KB/s  ]  
 
Автор Сообщение

Marsianka

[] 

Электра / Elektra
«Before she can find peace she will wage war.»

Страна: Канада, США
Студия: Epsilon Motion Pictures, Horseshoe Bay Productions, Marvel Enterprises, New Regency Pictures, Regency Enterprises, Twentieth Century Fox Film Corporation
Жанр: фэнтези, боевик, триллер, криминал
Год выпуска: 2005
Продолжительность: 01:36:49

Перевод: русский профессиональный (полное дублирование) [Лицензия, BD CEE]
Оригинальная аудиодорожка: нет
Русские субтитры: нет
Режиссер: Роб Боуман / Rob Bowman
В ролях: Дженнифер Гарнер, Горан Вишнич, Кирстен Праут, Уилл Юн Ли, Кэри-Хироюки Тагава, Теренс Стэмп, Наташа Мальте, Боб Сапп, Крио Экерман, Колин Каннингэм, Хиро Канагава, Марк Хотон, Кеван Охтци, Иэн Трейси, Яна Мицула
Роли дублировали: Ольга Сирина, Александр Груздев, Сергей Быстрицкий, Рудольф Панков, Олег Форостенко


Сюжет фильма основан на серии комиксов о приключениях греческой наемной убийцы Электры Начиос. Электра получает задание убрать «клиента» и его дочь. Но вместо этого они становятся друзьями и решают вместе противостоять заказчикам воинам-ниндзя из тайного ордена наемных убийц



Тип релиза: BDRip-AVC (исходник: Elektra (2005) Blu-ray CEE 1080p AVC DTS 5.1)
Контейнер: MKV
Видео кодек: x264
Аудио кодек: AC3
Видео: AVC / High@L4.1 / 2 pass / 23,976 fps / 1024x438p (2,35:1) / 1708 Kbps / 0.159
Аудио: AC3 / 5.1 ch / 448 kbps / Русский дубляж, BD CEE
Субтитры: нет
Дополнительно: Сохранены оригинальные чаптеры (главы) как на Blu-ray
Раздача от:


x264 [info]: frame I:1556 Avg QP:17.25 size: 56351
x264 [info]: frame P:33033 Avg QP:19.09 size: 17279
x264 [info]: frame B:104705 Avg QP:22.97 size: 5538
Общее
Уникальный идентификатор : 215338673607186949264782241492854539178 (0xA200B84FDA8D64EEA00BDFCC7E6A83AA)
Полное имя : F:Скачка торрентElektra.2005.BD.AVC(Killbrain).mkv
Формат : Matroska
Версия формата : Version 4 / Version 2
Размер файла : 1,46 Гбайт
Продолжительность : 1 ч. 36 м.
Общий поток : 2155 Кбит/сек
Название фильма : Elektra (2005) by Killbrain
Дата кодирования : UTC 2013-07-28 18:27:18
Программа кодирования : mkvmerge v6.3.0 ('You can't stop me!') built on Jun 28 2013 20:09:41
Библиотека кодирования : libebml v1.3.0 + libmatroska v1.4.0

Видео
Идентификатор : 1
Формат : AVC
Формат/Информация : Advanced Video Codec
Профиль формата : High@L4.1
Параметр CABAC формата : Да
Параметр ReFrames формата : 9 кадров
Идентификатор кодека : V_MPEG4/ISO/AVC
Продолжительность : 1 ч. 36 м.
Битрейт : 1708 Кбит/сек
Ширина : 1024 пикселя
Высота : 438 пикселей
Соотношение сторон : 2,35:1
Режим частоты кадров : Постоянный
Частота кадров : 23,976 кадра/сек
Цветовое пространство : YUV
Субдискретизация насыщенности : 4:2:0
Битовая глубина : 8 бит
Тип развёртки : Прогрессивная
Бит/(Пиксели*Кадры) : 0.159
Размер потока : 1,13 Гбайт (77%)
Заголовок : Elektra (2005)
Библиотека кодирования : x264 core 135 r2345 f0c1c53
Настройки программы : cabac=1 / ref=9 / deblock=1:-3:-3 / analyse=0x3:0x113 / me=umh / subme=10 / psy=1 / psy_rd=1.00:0.15 / mixed_ref=1 / me_range=32 / chroma_me=1 / trellis=2 / 8x8dct=1 / cqm=0 / deadzone=21,11 / fast_pskip=0 / chroma_qp_offset=-3 / threads=3 / lookahead_threads=1 / sliced_threads=0 / nr=0 / decimate=0 / interlaced=0 / bluray_compat=0 / constrained_intra=0 / bframes=8 / b_pyramid=2 / b_adapt=2 / b_bias=0 / direct=3 / weightb=1 / open_gop=0 / weightp=2 / keyint=240 / keyint_min=24 / scenecut=40 / intra_refresh=0 / rc_lookahead=60 / rc=2pass / mbtree=0 / bitrate=1708 / ratetol=1.0 / qcomp=0.65 / qpmin=0 / qpmax=69 / qpstep=4 / cplxblur=20.0 / qblur=0.5 / vbv_maxrate=40000 / vbv_bufsize=30000 / nal_hrd=none / ip_ratio=1.40 / pb_ratio=1.30 / aq=2:0.80
Язык : English
Default : Да
Forced : Нет

Аудио
Идентификатор : 2
Формат : AC-3
Формат/Информация : Audio Coding 3
Расширение режима : CM (complete main)
Параметр Endianness формата : Big
Идентификатор кодека : A_AC3
Продолжительность : 1 ч. 36 м.
Вид битрейта : Постоянный
Битрейт : 448 Кбит/сек
Каналы : 6 каналов
Расположение каналов : Front: L C R, Side: L R, LFE
Частота : 48,0 КГц
Битовая глубина : 16 бит
Метод сжатия : С потерями
Размер потока : 310 Мбайт (21%)
Заголовок : AC3 / 5.1 ch / 448 kbps / Русский дубляж, BD CEE
Язык : Russian
Default : Да
Forced : Нет

Меню
00:00:00.000 : en:00:00:00.000
00:02:30.025 : en:00:02:30.025
00:07:01.212 : en:00:07:01.212
00:08:11.950 : en:00:08:11.950
00:11:47.999 : en:00:11:47.999
00:13:39.110 : en:00:13:39.110
00:16:42.210 : en:00:16:42.210
00:20:38.195 : en:00:20:38.195
00:22:20.256 : en:00:22:20.256
00:29:01.573 : en:00:29:01.573
00:32:07.050 : en:00:32:07.050
00:36:21.221 : en:00:36:21.221
00:39:17.188 : en:00:39:17.188
00:44:20.575 : en:00:44:20.575
00:50:31.278 : en:00:50:31.278
00:52:12.296 : en:00:52:12.296
00:54:47.701 : en:00:54:47.701
01:01:10.166 : en:01:01:10.166
01:04:24.611 : en:01:04:24.611
01:09:38.091 : en:01:09:38.091
01:16:25.539 : en:01:16:25.539
01:19:18.379 : en:01:19:18.379
01:22:25.566 : en:01:22:25.566
01:27:40.672 : en:01:27:40.672





Скачать Электра.Elektra.(Роб.Боуман).[2005.фэнтези.боевик.триллер.криминал.BDRip-AVC].[Dub].[Лицензия].torrent без регистрации
Золото ЗОЛОТАЯ РАЗДАЧА! СКАЧАННОЕ НЕ ЗАСЧИТЫВАЕТСЯ! Золото
Дата: Зарегистрирован   [ Тип: внутренний ] Как тут cкачать?
MAGNET ссылка
MAGNET ссылка


Скачать .torrent

15 KB

Статус: проверено DHT
Скачан: торрент - 117 раз, раздача полностью - 43 раз
Размер: 1,46 GB
Оценка:  5 (Голосов: 2)
Поблагодарили: 3
Поделиться ссылкой на эту раздачу с друзьями:
В контактеFacebookОдноклассникиTwitterLivejournalМой МирLiveinternet
 

 
Показать сообщения:    


Вы не можете начинать темы
Вы не можете отвечать на сообщения
Вы не можете редактировать свои сообщения
Вы не можете удалять свои сообщения
Вы не можете голосовать в опросах
Вы не можете прикреплять файлы к сообщениям
Вы можете скачивать файлы