Loading...
Error

Скачать Клео от 5 до 7 / Cleo de 5 a 7 (Аньес Варда) [1962, драма, DVDRip-AVC] [VO]+[Sub] торрент без регистрации

 
Статистика раздачи
Размер:  1,42 GB   |    Скачан:  101 раз
Сидов:  1  [  0 KB/s  ]  
 
Автор Сообщение

Marsianka

[] 

Информация о фильме
Название: Клео от 5 до 7
Оригинальное название: Cleo de 5 a 7
Год выхода: 1962
Жанр: драма
Режиссер: Аньес Варда / Agnes Varda
В ролях: Коринн Маршан /Corinne Marchand/, Доротея Бланк /Dorothee Blank/, Антуан Бурселье /Antoine Bourseiller/, Анна Карина /Anna Karina/, Жан-Люк Годар /Jean-Luc Godard/, Хосе-Луис де Вилаллонга /Jose Luis de Villalonga/, Мишель Легран /Michel Legrand/, Доминик Даврэй /Dominique Davray/, Жан-Клод Бриали /Jean-Claude Brialy/, Сами Фрей /Sami Frey/

О фильме:
Начинающая певица Флоранс /Клео/ обеспокоена своим здоровьем и, в ожидании результатов медицинского теста, она идёт к гадалке. Карты Таро показывают смерть, и, хотя гадалка пытается это скрыть, Клео окончательно теряет душевный покой. Не находя ни понимания, ни сочувствия своим тревогам, охваченная смятением, Клео не может оставаться дома и выходит на улицу. Она заходит в кафе, встречается с подругой, бродит по городу и знакомится с молодым мужчиной, который, гуляя по парку, прощается с мирной жизнью - он солдат и ему предстоит отъезд в Алжир, где идёт война...


Страна: Франция, Италия
Студия: Cine Tamaris, Rome Paris Films
Продолжительность: 01:29:56
Перевод: Любительский (одноголосый, lehachuev)

Файл
Кодек: h.264
Качество: DVDRip-AVC
Видео: 656x480 (1.625) @ 780x480 (анаморф) , 23.976 fps, AVC, ~1942 Kbps, 0.257 bits/pixel
Французский, 48.0 KHz, AC3, 1 ch, 192 Kbps
Русский, 48.0 KHz, AC3, 2 ch, 128 Kbps
Субтитры:
1) Английские, VobSub
2) Русские, VobSub (Seandy, киноклуб "Феникс")
Исходник видео - R1 Criterion Collection
Общее
Уникальный идентификатор : 232117992878757169837419027126445202335 (0xAEA04C9FAFCDABE3B14639509598DB9F)
Полное имя : D:FilmsKleo_ot5_do_7.1962.DVDRip-AVC.mkv
Формат : Matroska
Версия формата : Version 4 / Version 2
Размер файла : 1,42 Гбайт
Продолжительность : 1 ч. 29 м.
Общий поток : 2267 Кбит/сек
Дата кодирования : UTC 2013-07-27 15:55:39
Программа кодирования : mkvmerge v6.2.0 ('Promised Land') built on Apr 28 2013 12:22:01
Библиотека кодирования : libebml v1.3.0 + libmatroska v1.4.0

Видео
Идентификатор : 1
Формат : AVC
Формат/Информация : Advanced Video Codec
Профиль формата : High@L4.1
Параметр CABAC формата : Да
Параметр ReFrames формата : 16 кадров
Идентификатор кодека : V_MPEG4/ISO/AVC
Продолжительность : 1 ч. 29 м.
Битрейт : 1942 Кбит/сек
Ширина : 656 пикселей
Высота : 480 пикселей
Соотношение сторон : 16:10
Режим частоты кадров : Постоянный
Частота кадров : 23,976 кадра/сек
Цветовое пространство : YUV
Субдискретизация насыщенности : 4:2:0
Битовая глубина : 8 бит
Тип развёртки : Прогрессивная
Бит/(Пиксели*Кадры) : 0.257
Размер потока : 1,19 Гбайт (84%)
Библиотека кодирования : x264 core 133 r2334 a3ac64b
Настройки программы : cabac=1 / ref=16 / deblock=1:0:0 / analyse=0x3:0x133 / me=umh / subme=10 / psy=1 / psy_rd=1.05:0.10 / mixed_ref=1 / me_range=32 / chroma_me=1 / trellis=2 / 8x8dct=1 / cqm=0 / deadzone=21,11 / fast_pskip=0 / chroma_qp_offset=-3 / threads=8 / lookahead_threads=2 / sliced_threads=0 / nr=0 / decimate=0 / interlaced=0 / bluray_compat=0 / constrained_intra=0 / bframes=11 / b_pyramid=2 / b_adapt=2 / b_bias=0 / direct=3 / weightb=1 / open_gop=0 / weightp=2 / keyint=240 / keyint_min=23 / scenecut=40 / intra_refresh=0 / rc_lookahead=60 / rc=2pass / mbtree=0 / bitrate=1942 / ratetol=1.0 / qcomp=0.60 / qpmin=0 / qpmax=60 / qpstep=4 / cplxblur=20.0 / qblur=0.5 / vbv_maxrate=50000 / vbv_bufsize=62500 / nal_hrd=none / ip_ratio=1.40 / pb_ratio=1.30 / aq=1:1.00
Default : Нет
Forced : Нет
Коэффициенты матрицы : BT.601

Аудио #1
Идентификатор : 2
Формат : AC-3
Формат/Информация : Audio Coding 3
Расширение режима : CM (complete main)
Параметр Endianness формата : Big
Идентификатор кодека : A_AC3
Продолжительность : 1 ч. 29 м.
Вид битрейта : Постоянный
Битрейт : 192 Кбит/сек
Каналы : 1 канал
Расположение каналов : Front: C
Частота : 48,0 КГц
Битовая глубина : 16 бит
Метод сжатия : С потерями
Размер потока : 124 Мбайт (8%)
Язык : French
Default : Нет
Forced : Нет

Аудио #2
Идентификатор : 3
Формат : AC-3
Формат/Информация : Audio Coding 3
Расширение режима : CM (complete main)
Параметр Endianness формата : Big
Идентификатор кодека : A_AC3
Продолжительность : 1 ч. 29 м.
Вид битрейта : Постоянный
Битрейт : 128 Кбит/сек
Каналы : 2 канала
Расположение каналов : Front: L R
Частота : 48,0 КГц
Битовая глубина : 16 бит
Метод сжатия : С потерями
Размер потока : 82,3 Мбайт (6%)
Язык : Russian
Default : Да
Forced : Нет

Текст #1
Идентификатор : 4
Формат : VobSub
Режим смешивания : zlib
Идентификатор кодека : S_VOBSUB
Идентификатор кодека/Информация : The same subtitle format used on DVDs
Язык : English
Default : Нет
Forced : Нет

Текст #2
Идентификатор : 5
Формат : VobSub
Режим смешивания : zlib
Идентификатор кодека : S_VOBSUB
Идентификатор кодека/Информация : The same subtitle format used on DVDs
Язык : Russian
Default : Нет
Forced : Нет

Меню
00:00:00.000 : en:Chapter 01
00:05:12.367 : en:Chapter 02
00:08:13.901 : en:Chapter 03
00:12:22.568 : en:Chapter 04
00:15:34.568 : en:Chapter 05
00:19:42.735 : en:Chapter 06
00:23:04.402 : en:Chapter 07
00:28:27.370 : en:Chapter 08
00:31:16.537 : en:Chapter 09
00:37:26.904 : en:Chapter 10
00:41:38.237 : en:Chapter 11
00:48:23.071 : en:Chapter 12
00:52:25.672 : en:Chapter 13
00:58:34.273 : en:Chapter 14
01:03:05.273 : en:Chapter 15
01:08:23.707 : en:Chapter 16
01:14:53.207 : en:Chapter 17
01:18:23.874 : en:Chapter 18
01:22:31.874 : en:Chapter 19
01:25:22.374 : en:Chapter 20
01:29:49.708 : en:Chapter 21
frame I:718 Avg QP:15.83 size: 48472
frame P:33625 Avg QP:18.81 size: 19333
frame B:95029 Avg QP:21.69 size: 6574



Скачать Клео.от.5.до.7.Cleo.de.5.a.7.(Аньес.Варда).[1962.драма.DVDRip-AVC].[VO]+[Sub].torrent без регистрации
Золото ЗОЛОТАЯ РАЗДАЧА! СКАЧАННОЕ НЕ ЗАСЧИТЫВАЕТСЯ! Золото
Дата: Зарегистрирован   [ Тип: внутренний ] Как тут cкачать?
MAGNET ссылка
MAGNET ссылка


Скачать .torrent

15 KB

Статус: проверено DHT
Скачан: торрент - 101 раз, раздача полностью - 11 раз
Размер: 1,42 GB
Оценка:  - (Голосов: 0)
Поблагодарили: 2
Поделиться ссылкой на эту раздачу с друзьями:
В контактеFacebookОдноклассникиTwitterLivejournalМой МирLiveinternet
 

 
Показать сообщения:    


Вы не можете начинать темы
Вы не можете отвечать на сообщения
Вы не можете редактировать свои сообщения
Вы не можете удалять свои сообщения
Вы не можете голосовать в опросах
Вы не можете прикреплять файлы к сообщениям
Вы можете скачивать файлы