Loading...
Error

Скачать Счастье / Le Bonheur (Аньес Варда) [1965, драма, DVDRip-AVC] [VO]+[Sub] торрент без регистрации

 
Статистика раздачи
Размер:  1,42 GB   |    Скачан:  105 раз

Полного источника не было: 19 минут

 
Автор Сообщение

Marsianka

[] 

Информация о фильме
Название: Счастье
Оригинальное название: Le Bonheur
Год выхода: 1965
Жанр: драма
Режиссер: Аньес Варда / Agnes Varda
В ролях: Жан-Клод Друо, Клер Друо, Оливер Друо, Сандрин Друо, Мари-Франс Буайе, Поль Веккиали, Марсель Фор-Бертен

О фильме:
Фильм о любовном треугольнике, в центре которого находится мужчина, работающий столяром. Избранный им жизненный принцип о том, что необходимо всегда быть честным, не позволяет ему обманывать своих женщин. К чему все это приведет?



Страна: Франция
Студия: Parc Film
Продолжительность: 01:20:08
Перевод: Одноголосый закадровый (renege79 aka lehachuev)

Файл
Кодек: h.264
Качество: DVDRip-AVC
Видео: 672x480 (1.669) @ 802x480 (анаморф), 23.976 fps, AVC, ~2155 Kbps, 0.279 bits/pixel
Звук:
Русский, 48.0 KHz, AC3, 2 ch, 192 Kbps
Французский, 48.0 KHz, AC3, 1 ch, 192 Kbps
Субтитры:
Русские, VobSub
Английские, VobSub

Исходник R1 Criterion Collection
Общее
Уникальный идентификатор : 215958258578301565175030341106561606983 (0xA2780C35A1ECA1D8B3FABE71C02E6547)
Полное имя : D:FilmsSchastye.1965.DVDRip-AVC.mkv
Формат : Matroska
Версия формата : Version 4 / Version 2
Размер файла : 1,42 Гбайт
Продолжительность : 1 ч. 20 м.
Общий поток : 2545 Кбит/сек
Дата кодирования : UTC 2013-07-27 16:04:05
Программа кодирования : mkvmerge v6.2.0 ('Promised Land') built on Apr 28 2013 12:22:01
Библиотека кодирования : libebml v1.3.0 + libmatroska v1.4.0

Видео
Идентификатор : 1
Формат : AVC
Формат/Информация : Advanced Video Codec
Профиль формата : High@L4.1
Параметр CABAC формата : Да
Параметр ReFrames формата : 16 кадров
Идентификатор кодека : V_MPEG4/ISO/AVC
Продолжительность : 1 ч. 20 м.
Битрейт : 2155 Кбит/сек
Ширина : 672 пикселя
Высота : 480 пикселей
Соотношение сторон : 1,669
Соотношение сторон в оригинале : 1,670
Режим частоты кадров : Постоянный
Частота кадров : 23,976 кадра/сек
Цветовое пространство : YUV
Субдискретизация насыщенности : 4:2:0
Битовая глубина : 8 бит
Тип развёртки : Прогрессивная
Бит/(Пиксели*Кадры) : 0.279
Размер потока : 1,18 Гбайт (83%)
Библиотека кодирования : x264 core 133 r2334 a3ac64b
Настройки программы : cabac=1 / ref=16 / deblock=1:0:0 / analyse=0x3:0x133 / me=umh / subme=10 / psy=1 / psy_rd=1.05:0.10 / mixed_ref=1 / me_range=32 / chroma_me=1 / trellis=2 / 8x8dct=1 / cqm=0 / deadzone=21,11 / fast_pskip=0 / chroma_qp_offset=-3 / threads=8 / lookahead_threads=2 / sliced_threads=0 / nr=0 / decimate=0 / interlaced=0 / bluray_compat=0 / constrained_intra=0 / bframes=10 / b_pyramid=2 / b_adapt=2 / b_bias=0 / direct=3 / weightb=1 / open_gop=0 / weightp=2 / keyint=240 / keyint_min=23 / scenecut=40 / intra_refresh=0 / rc_lookahead=60 / rc=2pass / mbtree=0 / bitrate=2155 / ratetol=1.0 / qcomp=0.60 / qpmin=0 / qpmax=60 / qpstep=4 / cplxblur=20.0 / qblur=0.5 / vbv_maxrate=50000 / vbv_bufsize=62500 / nal_hrd=none / ip_ratio=1.40 / pb_ratio=1.30 / aq=1:1.00
Default : Нет
Forced : Нет
Коэффициенты матрицы : BT.601

Аудио #1
Идентификатор : 2
Формат : AC-3
Формат/Информация : Audio Coding 3
Расширение режима : CM (complete main)
Параметр Endianness формата : Big
Идентификатор кодека : A_AC3
Продолжительность : 1 ч. 20 м.
Вид битрейта : Постоянный
Битрейт : 192 Кбит/сек
Каналы : 2 канала
Расположение каналов : Front: L R
Частота : 48,0 КГц
Битовая глубина : 16 бит
Метод сжатия : С потерями
Размер потока : 110 Мбайт (8%)
Язык : Russian
Default : Да
Forced : Нет

Аудио #2
Идентификатор : 3
Формат : AC-3
Формат/Информация : Audio Coding 3
Расширение режима : CM (complete main)
Параметр Endianness формата : Big
Идентификатор кодека : A_AC3
Продолжительность : 1 ч. 20 м.
Вид битрейта : Постоянный
Битрейт : 192 Кбит/сек
Каналы : 1 канал
Расположение каналов : Front: C
Частота : 48,0 КГц
Битовая глубина : 16 бит
Метод сжатия : С потерями
Размер потока : 110 Мбайт (8%)
Язык : French
Default : Нет
Forced : Нет

Текст #1
Идентификатор : 4
Формат : VobSub
Режим смешивания : zlib
Идентификатор кодека : S_VOBSUB
Идентификатор кодека/Информация : The same subtitle format used on DVDs
Язык : Russian
Default : Нет
Forced : Нет

Текст #2
Идентификатор : 5
Формат : VobSub
Режим смешивания : zlib
Идентификатор кодека : S_VOBSUB
Идентификатор кодека/Информация : The same subtitle format used on DVDs
Язык : English
Default : Нет
Forced : Нет

Меню
00:00:00.000 : en:Chapter 01
00:06:55.968 : en:Chapter 02
00:09:44.968 : en:Chapter 03
00:13:42.968 : en:Chapter 04
00:18:40.135 : en:Chapter 05
00:23:05.936 : en:Chapter 06
00:29:22.936 : en:Chapter 07
00:33:34.036 : en:Chapter 08
00:37:00.036 : en:Chapter 09
00:41:59.203 : en:Chapter 10
00:47:05.037 : en:Chapter 11
00:52:32.037 : en:Chapter 12
00:57:04.037 : en:Chapter 13
00:59:44.037 : en:Chapter 14
01:05:19.037 : en:Chapter 15
01:09:06.037 : en:Chapter 16
01:12:43.005 : en:Chapter 17
01:15:47.005 : en:Chapter 18
01:19:57.005 : en:Chapter 19
frame I:683 Avg QP:17.10 size: 59940
frame P:34373 Avg QP:20.44 size: 21400
frame B:80224 Avg QP:21.35 size: 6467



Скачать Счастье.Le.Bonheur.(Аньес.Варда).[1965.драма.DVDRip-AVC].[VO]+[Sub].torrent без регистрации
Золото ЗОЛОТАЯ РАЗДАЧА! СКАЧАННОЕ НЕ ЗАСЧИТЫВАЕТСЯ! Золото
Дата: Зарегистрирован   [ Тип: внутренний ] Как тут cкачать?
MAGNET ссылка
MAGNET ссылка


Скачать .torrent

15 KB

Статус: проверено DHT
Скачан: торрент - 105 раз, раздача полностью - 10 раз
Размер: 1,42 GB
Оценка:  - (Голосов: 0)
Поблагодарили: 2
Поделиться ссылкой на эту раздачу с друзьями:
В контактеFacebookОдноклассникиTwitterLivejournalМой МирLiveinternet
 

 
Показать сообщения:    


Вы не можете начинать темы
Вы не можете отвечать на сообщения
Вы не можете редактировать свои сообщения
Вы не можете удалять свои сообщения
Вы не можете голосовать в опросах
Вы не можете прикреплять файлы к сообщениям
Вы можете скачивать файлы