Loading...
Error

Скачать 9 смертей ниндзя / Nine Deaths of the Ninja (Эммет Олстон) [1985 г.,боевик, DVDRip] [MVO, DVO] торрент без регистрации

 
Статистика раздачи
Размер:  1,32 GB   |    Скачан:  167 раз
Сидов:  1  [  0 KB/s  ]  
 
Автор Сообщение

durik

[] 

9 смертей ниндзя / Nine Deaths of the Ninja

Название: 9 смертей ниндзя
Оригинальное название: Nine Deaths of the Ninja
Год выхода: 1985
Жанр: боевик
Режиссер: Эммет Олстон
В ролях: Сё Косуги, Брент Хафф, Эмилия Кроу, Блэкки Дэммет, Реджина Ричардсон, Виджай Амритрадж, Лиза Фридман, Кейн Косуги, Шейн Косуги, Брюс Фэнджер

О фильме:
Во время визита в Азию похищены конгрессмен США и большая группа туристов, требуют освобождения из тюрем опасных преступников, связанных с наркобизнесом. Конфликт международного масштаба поручено разрешить группе высококлассных бойцов - экспертов по борьбе с терроризмом.
Руководитель группы Спайк Шиноби, его верный помощник Стив Гордон и соблазнительная агент Дженнифер Барс разрабатывают виртуозный план освобождения заложников.



Страна: США
Продолжительность: 01:34:37
Перевод: Профессиональный (многоголосый закадровый) [CP Digital]
Профессиональный (двухголосый закадровый) [Ульпаней Эльром]

Кодек: XviD / AVI
Качество: DVDRip
Видео: 704x288, 1419 kbps, 23.976 fps, 0.292 Bits/(Pixel*Frame)
Звук:
AC3, 48 kHz, 192 kbps, 2 ch - [RUS] [CP Digital]
AC3, 48 kHz, 192 kbps, 1 ch - [RUS] [Ульпаней Эльром]
AC3, 48 kHz, 192 kbps, 2 ch - [ENG] [Original]
Субтитры: Нет

Релиз от:

Автор рипа: Bathory

General
Complete name : G:9.Smertej.Ninja.1985.DVDRip.avi
Format : AVI
Format/Info : Audio Video Interleave
File size : 1.32 GiB
Duration : 1h 34mn
Overall bit rate : 2 002 Kbps

Video
ID : 0
Format : MPEG-4 Visual
Format profile : Advanced Simple@L5
Format settings, BVOP : 2
Format settings, QPel : No
Format settings, GMC : No warppoints
Format settings, Matrix : Default (H.263)
Codec ID : XVID
Codec ID/Hint : XviD
Duration : 1h 34mn
Bit rate : 1 419 Kbps
Width : 704 pixels
Height : 288 pixels
Display aspect ratio : 2.40:1
Frame rate : 23.976 fps
Color space : YUV
Chroma subsampling : 4:2:0
Bit depth : 8 bits
Scan type : Progressive
Compression mode : Lossy
Bits/(Pixel*Frame) : 0.292
Stream size : 960 MiB (71%)
Writing library : XviD 1.2.1 (UTC 2008-12-04)

Audio #1
ID : 1
Format : AC-3
Format/Info : Audio Coding 3
Mode extension : CM (complete main)
Format settings, Endianness : Big
Codec ID : 2000
Duration : 1h 34mn
Bit rate mode : Constant
Bit rate : 192 Kbps
Channel(s) : 2 channels
Channel positions : Front: L R
Sampling rate : 48.0 KHz
Bit depth : 16 bits
Compression mode : Lossy
Stream size : 130 MiB (10%)
Alignment : Aligned on interleaves
Interleave, duration : 64 ms (1.53 video frames)
Interleave, preload duration : 192 ms
Title : VTS_01_1 T80 2_0ch 192Kbps DELAY 0ms_new

Audio #2
ID : 2
Format : AC-3
Format/Info : Audio Coding 3
Mode extension : CM (complete main)
Format settings, Endianness : Big
Codec ID : 2000
Duration : 1h 33mn
Bit rate mode : Constant
Bit rate : 192 Kbps
Channel(s) : 1 channel
Channel positions : Front: C
Sampling rate : 48.0 KHz
Bit depth : 16 bits
Compression mode : Lossy
Stream size : 128 MiB (9%)
Alignment : Aligned on interleaves
Interleave, duration : 65 ms (1.56 video frames)
Interleave, preload duration : 192 ms
Title : VTS_01_1 T81 1_0ch 96Kbps DELAY 0ms_new

Audio #3
ID : 3
Format : AC-3
Format/Info : Audio Coding 3
Mode extension : CM (complete main)
Format settings, Endianness : Big
Codec ID : 2000
Duration : 1h 33mn
Bit rate mode : Constant
Bit rate : 192 Kbps
Channel(s) : 2 channels
Channel positions : Front: L R
Sampling rate : 48.0 KHz
Bit depth : 16 bits
Compression mode : Lossy
Stream size : 128 MiB (9%)
Alignment : Aligned on interleaves
Interleave, duration : 65 ms (1.56 video frames)
Interleave, preload duration : 192 ms
Title : VTS_01_1 T82 2_0ch 192Kbps DELAY 0ms_new



Скачать 9.смертей.ниндзя.Nine.Deaths.of.the.Ninja.(Эммет.Олстон).[1985.г.боевик.DVDRip].[MVO.DVO].torrent без регистрации
Золото ЗОЛОТАЯ РАЗДАЧА! СКАЧАННОЕ НЕ ЗАСЧИТЫВАЕТСЯ! Золото
Дата: Зарегистрирован   [ Тип: внутренний ] Как тут cкачать?
MAGNET ссылка
MAGNET ссылка


Скачать .torrent

14 KB

Статус: проверено DHT
Скачан: торрент - 167 раз, раздача полностью - 15 раз
Размер: 1,32 GB
Оценка:  - (Голосов: 0)
Поблагодарили: 3
Поделиться ссылкой на эту раздачу с друзьями:
В контактеFacebookОдноклассникиTwitterLivejournalМой МирLiveinternet
 

 
Показать сообщения:    


Вы не можете начинать темы
Вы не можете отвечать на сообщения
Вы не можете редактировать свои сообщения
Вы не можете удалять свои сообщения
Вы не можете голосовать в опросах
Вы не можете прикреплять файлы к сообщениям
Вы можете скачивать файлы