Loading...
Error

Скачать Каннибалы / Cannibal ferox (Умберто Ленци) [1981 г., ужасы, приключения, DVDRip] [AVO] (Визгунов) торрент без регистрации

 
Статистика раздачи
Размер:  1,37 GB   |    Скачан:  124 раза
Сидов:  1  [  0 KB/s  ]  
 
Автор Сообщение

durik

[] 

Каннибалы / Cannibal ferox

Название: Каннибалы
Оригинальное название: Cannibal ferox
Год выхода: 1981
Жанр: ужасы, приключения
Режиссер: Умберто Ленци
В ролях: Джованни Ломбардо Радице, Лоррейн Де Селле, Данило Маттеи, Зора Керова, Уолтер Луккини, Фьямма Мальоне, Роберт Керман, Джон Барта, Венантино Венантини, «Эль Индио» Ринкон

О фильме:
Майк — преступник и садист. Ему нет места в обществе. Он живет по закону джунглей — во всех смыслах. И именно в дебрях Амазонии он пытается найти то, от чего в ужасе отвернется любой из нас: боль и кровь. Но джунгли таят в себе еще более кошмарные вещи…



Страна: Италия
Студия: Dania Film, Medusa Distribuzione, National Cinematografica
Продолжительность: 01:28:59
Перевод: Авторский (одноголосый закадровый)[Сергей Визгунов]

Файл
Кодек: XviD / AVI
Качество: DVDRip
Видео: 720x400, 2003 kbps, 25 fps, 0.278 Bits/(Pixel*Frame)
Звук: AC2, 48 kHz, 192 kbps, 2 ch
Субтитры: Нет

Релиз от: и

Автор рипа: Bathory

General
Complete name : G:Cannibal.Ferox.1981.DVDRip.avi
Format : AVI
Format/Info : Audio Video Interleave
File size : 1.37 GiB
Duration : 1h 28mn
Overall bit rate : 2 205 Kbps
Writing application : VirtualDubMod 1.5.10.3 | www.virtualdub-fr.org || (build 2550/release)
Writing library : VirtualDubMod build 2550/release

Video
ID : 0
Format : MPEG-4 Visual
Format profile : Advanced Simple@L5
Format settings, BVOP : 3
Format settings, QPel : No
Format settings, GMC : No warppoints
Format settings, Matrix : Default (H.263)
Codec ID : XVID
Codec ID/Hint : XviD
Duration : 1h 28mn
Bit rate : 2 003 Kbps
Width : 720 pixels
Height : 400 pixels
Display aspect ratio : 16:9
Frame rate : 25.000 fps
Color space : YUV
Chroma subsampling : 4:2:0
Bit depth : 8 bits
Scan type : Progressive
Compression mode : Lossy
Bits/(Pixel*Frame) : 0.278
Stream size : 1.24 GiB (91%)
Writing library : XviD 73

Audio
ID : 1
Format : AC-3
Format/Info : Audio Coding 3
Mode extension : CM (complete main)
Format settings, Endianness : Big
Codec ID : 2000
Duration : 1h 28mn
Bit rate mode : Constant
Bit rate : 192 Kbps
Channel(s) : 2 channels
Channel positions : Front: L R
Sampling rate : 48.0 KHz
Bit depth : 16 bits
Compression mode : Lossy
Stream size : 122 MiB (9%)
Alignment : Split accross interleaves
Interleave, duration : 40 ms (1.00 video frame)
Interleave, preload duration : 500 ms



Скачать Каннибалы.Cannibal.ferox.(Умберто.Ленци).[1981.г.ужасы.приключения.DVDRip].[AVO].(Визгунов).torrent без регистрации
Золото ЗОЛОТАЯ РАЗДАЧА! СКАЧАННОЕ НЕ ЗАСЧИТЫВАЕТСЯ! Золото
Дата: Зарегистрирован   [ Тип: внутренний ] Как тут cкачать?
MAGNET ссылка
MAGNET ссылка


Скачать .torrent

14 KB

Статус: проверено DHT
Скачан: торрент - 124 раз, раздача полностью - 22 раз
Размер: 1,37 GB
Оценка:  5 (Голосов: 1)
Поблагодарили: 4
Поделиться ссылкой на эту раздачу с друзьями:
В контактеFacebookОдноклассникиTwitterLivejournalМой МирLiveinternet
 

 
Показать сообщения:    


Вы не можете начинать темы
Вы не можете отвечать на сообщения
Вы не можете редактировать свои сообщения
Вы не можете удалять свои сообщения
Вы не можете голосовать в опросах
Вы не можете прикреплять файлы к сообщениям
Вы можете скачивать файлы