Loading...
Error

- / L.A. Heat ( 1- ) ( / Joseph Merhi, / Richard Pepin) [1996 ., , , DVB] [DVO] (CBS Drama)

 
29,78 GB   |    :  244

: 29

 

leon030982

[] 

:
18+, CBS Drama 12+
-
/ L.A. Heat
: 1996
:
: ,

: 45 . (PAL)
: () (CBS Drama)
:
:

: Joseph Merhi ( ), Richard Pepin ( )
: Richard Pepin ( ), Cole S. McKay ( . ), Paul G. Volk ( . )
: Joseph Merhi ( ), Richard Pepin ( ), Nick Stone ( )
: Wolf Larson ( ), Steven Williams ( ), Renee Tenison ( ), Kenneth Tigar ( ), Dawn Eason ( ), Christopher Boyer ( ), Clay Banks ( ), Jessica Cushman ( ), Debbie James ( ), Jessica Hopper ( )
: . . , , , (: )
-, . , , . 144 , 154 (: )


.: (NTV+, 36E). 9 - , (??).
: 18+, 12+


: : (36e).
Sample1:
( ~30 MB)
: DVB
: MPEG-PS
: MPEG2
: MP2
: MPEG2: 25 fps, 720x576 (4:3), ~3370 Kbps, 0.325 bit/pixel
#1: MP2, 48 kHz, 1 ch, 96 kbps, [i]

:

General
Format : MPEG-PS
File size : 1.13 GiB
Duration : 45mn 39s
Overall bit rate mode : Variable
Overall bit rate : 3 537 Kbps
Video
ID : 224 (0xE0)
Format : MPEG Video
Format version : Version 2
Format profile : Main@Main
Format settings, BVOP : Yes
Format settings, Matrix : Custom
Format settings, GOP : M=3, N=12
Duration : 45mn 39s
Bit rate mode : Variable
Bit rate : 3 370 Kbps
Maximum bit rate : 4 000 Kbps
Width : 720 pixels
Height : 576 pixels
Display aspect ratio : 4:3
Frame rate : 25.000 fps
Standard : PAL
Color space : YUV
Chroma subsampling : 4:2:0
Bit depth : 8 bits
Scan type : Interlaced
Scan order : Top Field First
Compression mode : Lossy
Bits/(Pixel*Frame) : 0.325
Time code of first frame : 00:00:00:00
Time code source : Group of pictures header
Stream size : 1.07 GiB (95%)
Audio
ID : 192 (0xC0)
Format : MPEG Audio
Format version : Version 1
Format profile : Layer 2
Duration : 45mn 39s
Bit rate mode : Constant
Bit rate : 96.0 Kbps
Channel(s) : 1 channel
Sampling rate : 48.0 KHz
Compression mode : Lossy
Stream size : 31.3 MiB (3%)
s01e01 Daybomber
s01e02 Too Young to Die
s01e03 In Transit
s01e04 Electra
s01e05 Silicon Sting
s01e06 Cop Star
s01e07 Strange Currencies
s01e08 Rage
s01e09 Words Will Never Hurt Me
s01e10 Rap Sheet
s01e11 For Whom the Bullet Tolls
s01e12 Old Scores
s01e13 My Brother's Keeper
s01e14 211 Kidney
s01e15 Special Order 40
s01e16 Falcon
s01e17 Green Justice
s01e18 Smash and Grab
s01e19 Killing on Lily Lane
s01e20 Death House
s01e21 When Irish Eyes Are Smiling
s01e22 Chester Nut
s01e23 Captain Crimestopper
s01e24 Big Guns
s01e25 National Security
s01e26 Wake Up Call



..-.L.A.Heat.(.1-.).(..Joseph.Merhi...Richard.Pepin).[1996....DVB].[DVO].(CBS.Drama).torrent
  ! ! 
:   [ : ] c?
MAGNET
MAGNET


.torrent

151 KB

: DHT
: - 244 , - 6
: 29,78 GB
- (: 0)
: 0
:
 FacebookTwitterLivejournal Liveinternet
 

 
: