Loading...
Error

Скачать Миссия «Серенити» / Serenity (Джосс Уидон) [2005, фантастика, боевик, триллер, приключения, BDRip] [Dub R5]+[DVO]+3x[AVO (В. Горчаков, В. Королёв, Ю. Сербин)] торрент без регистрации

 
Статистика раздачи
Размер:  3,51 GB   |    Скачан:  108 раз

Полного источника не было: 26 минут

 
Автор Сообщение

МихаНЕзатор

[] 

Название: Миссия «Серенити»
Оригинальное название: Serenity
Год выпуска: 2005
Жанр: Фантастика, боевик, триллер, приключения
Выпущено: США, Universal Pictures
Режиссер: Джосс Уидон

В ролях: Натан Филлион, Джина Торрес, Алан Тьюдик, Морена Баккарин, Адам Болдуин, Джевел Стэйт, Шон Маэр, Саммер Глау, Рон Гласс, Чиветел Эджиофор, Эрик Уэйнер

О фильме: Космический «морской волк» и ветеран Гражданской Галактической войны Малькольм «Мэл» Рейнольдс теперь всего лишь капитан транспортного корабля. Когда они взяли на борт пассажиров молодого доктора и его странную сестру с телепатическими способностями, ни он, ни его товарищи не предполагали, в какую историю ввяжутся. Спасаясь сразу от нескольких могущественных врагов и от военных сил тоталитарного Вселенского Альянса, и от ужасных каннибалов Пожирателей, команда корабля даже не догадывалась, какая угроза скрывается на борту «Серенити».

Качество: BDRip
Размер: 3.51 ГБ
Продолжительность: 01:59:02

Видео: XviD, 1575 Кбит/с, 720x304
Аудио 1: русский, 48 kHz, AC3, 6 ch, 384 kbps avg, [Дублированный, R5]
Аудио 2: русский, 48 kHz, AC3, 6 ch, 448 kbps avg, Tycoon [Профессиональный двухголосый]

Внешние файлы
Аудио: русский, 48 kHz, AC3, 6 ch, 448 kbps avg, Василий Горчаков [Авторский]
Аудио: русский, 48 kHz, AC3, 6 ch, 448 kbps avg, Владимир Королёв [Авторский]
Аудио: русский, 48 kHz, AC3, 6 ch, 448 kbps avg, Юрий Сербин [Авторский]
Аудио: английский, 48 kHz, AC3, 6 ch, 448 kbps avg, [Оригинал]
Субтитры: русские
Субтитры: английские (для слабослышащих)

Сравнение с исходником

Сатурн, 2006 год
Победитель (1):
Лучшая актриса второго плана (Саммер Глау)

Номинации (1):
Лучший научно-фантастический фильм
KinoProba

Так много хочется сказать, что не знаю с чего начать. Впрочем, достаточно того, что это - шедевр!
Представьте, что в космическом экшене может быть затягивающий и логичный сюжет, остроумные диалоги, великолепная игра актёров, бесподобная работа камеры, красивая постановка драк и практически ни одного штампа! Да, всё это здесь есть. И, может быть, в каком-то из подобных фильмов что-то реализовано получше, но «Серенити» ложит все эти фильмы на лопатки по совокупности параметров.
Единственное, что этому фильму не хватает, так это денег. Режиссёр с оператором умело выкручиваются, прикрывая бедность спецэффектов красивыми ракурсами и их быстрыми сменами, а отсутствие размаха грамотным раскрытием вселенной фильма и редкими, но красивыми космическими баталиями. Но если бы денег было побольше, то к этим уловкам и не надо было прибегать, а фильм бы получился не просто шедевром, но и хитом.

Кинопоиск
Общее
Полное имя : E:VideoMissija.Sereniti.2005.XviD.BDRipMissija.Sereniti.2005.AVO.rus.В.Горчаков.ac3
Формат : AC-3
Формат/Информация : Audio Coding 3
Размер файла : 381 Мбайт
Продолжительность : 1 ч. 59 м.
Режим общего битрейта : Постоянный
Общий поток : 448 Кбит/сек

Аудио
Формат : AC-3
Формат/Информация : Audio Coding 3
Расширение режима : CM (complete main)
Параметр Endianness формата : Big
Продолжительность : 1 ч. 59 м.
Вид битрейта : Постоянный
Битрейт : 448 Кбит/сек
Каналы : 6 каналов
Расположение каналов : Front: L C R, Side: L R, LFE
Частота : 48,0 КГц
Битовая глубина : 16 бит
Метод сжатия : С потерями
Размер потока : 381 Мбайт (100%)

Общее
Полное имя : E:VideoMissija.Sereniti.2005.XviD.BDRipMissija.Sereniti.2005.AVO.rus.В.Королёв.ac3
Формат : AC-3
Формат/Информация : Audio Coding 3
Размер файла : 381 Мбайт
Продолжительность : 1 ч. 59 м.
Режим общего битрейта : Постоянный
Общий поток : 448 Кбит/сек

Аудио
Формат : AC-3
Формат/Информация : Audio Coding 3
Расширение режима : CM (complete main)
Параметр Endianness формата : Big
Продолжительность : 1 ч. 59 м.
Вид битрейта : Постоянный
Битрейт : 448 Кбит/сек
Каналы : 6 каналов
Расположение каналов : Front: L C R, Side: L R, LFE
Частота : 48,0 КГц
Битовая глубина : 16 бит
Метод сжатия : С потерями
Размер потока : 381 Мбайт (100%)

Общее
Полное имя : E:VideoMissija.Sereniti.2005.XviD.BDRipMissija.Sereniti.2005.AVO.rus.Ю.Сербин.ac3
Формат : AC-3
Формат/Информация : Audio Coding 3
Размер файла : 381 Мбайт
Продолжительность : 1 ч. 59 м.
Режим общего битрейта : Постоянный
Общий поток : 448 Кбит/сек

Аудио
Формат : AC-3
Формат/Информация : Audio Coding 3
Расширение режима : CM (complete main)
Параметр Endianness формата : Big
Продолжительность : 1 ч. 59 м.
Вид битрейта : Постоянный
Битрейт : 448 Кбит/сек
Каналы : 6 каналов
Расположение каналов : Front: L C R, Side: L R, LFE
Частота : 48,0 КГц
Битовая глубина : 16 бит
Метод сжатия : С потерями
Размер потока : 381 Мбайт (100%)

Общее
Полное имя : E:VideoMissija.Sereniti.2005.XviD.BDRipMissija.Sereniti.2005.eng.SDH.srt
Размер файла : 228 Кбайт

Общее
Полное имя : E:VideoMissija.Sereniti.2005.XviD.BDRipMissija.Sereniti.2005.Original.eng.ac3
Формат : AC-3
Формат/Информация : Audio Coding 3
Размер файла : 381 Мбайт
Продолжительность : 1 ч. 59 м.
Режим общего битрейта : Постоянный
Общий поток : 448 Кбит/сек

Аудио
Формат : AC-3
Формат/Информация : Audio Coding 3
Расширение режима : CM (complete main)
Параметр Endianness формата : Big
Продолжительность : 1 ч. 59 м.
Вид битрейта : Постоянный
Битрейт : 448 Кбит/сек
Каналы : 6 каналов
Расположение каналов : Front: L C R, Side: L R, LFE
Частота : 48,0 КГц
Битовая глубина : 16 бит
Метод сжатия : С потерями
Размер потока : 381 Мбайт (100%)

Общее
Полное имя : E:VideoMissija.Sereniti.2005.XviD.BDRipMissija.Sereniti.2005.rus.srt
Размер файла : 197 Кбайт

Общее
Полное имя : E:VideoMissija.Sereniti.2005.XviD.BDRipMissija.Sereniti.2005.XviD.BDRip.avi
Формат : AVI
Формат/Информация : Audio Video Interleave
Профиль формата : OpenDML
Размер файла : 2,02 Гбайт
Продолжительность : 1 ч. 59 м.
Общий поток : 2425 Кбит/сек
Программа кодирования : VirtualDubMod 1.5.10.2 (build 2540/release)
Библиотека кодирования : VirtualDubMod build 2540/release

Видео
Идентификатор : 0
Формат : MPEG-4 Visual
Профиль формата : Advanced Simple@L5
Параметр BVOP формата : 1
Параметр QPel формата : Нет
Параметр GMC формата : Без точки перехода
Параметр матрицы формата : Default (H.263)
Режим смешивания : Сжатый битовый поток
Идентификатор кодека : XVID
Идентификатор кодека/Подсказка : XviD
Продолжительность : 1 ч. 59 м.
Битрейт : 1575 Кбит/сек
Ширина : 720 пикселей
Высота : 304 пикселя
Соотношение сторон : 2,35:1
Частота кадров : 23,976 кадра/сек
Цветовое пространство : YUV
Субдискретизация насыщенности : 4:2:0
Битовая глубина : 8 бит
Тип развёртки : Прогрессивная
Метод сжатия : С потерями
Бит/(Пиксели*Кадры) : 0.300
Размер потока : 1,31 Гбайт (65%)
Библиотека кодирования : XviD 1.2.1 (UTC 2008-12-04)

Аудио #1
Идентификатор : 1
Формат : AC-3
Формат/Информация : Audio Coding 3
Расширение режима : CM (complete main)
Параметр Endianness формата : Big
Идентификатор кодека : 2000
Продолжительность : 1 ч. 58 м.
Вид битрейта : Постоянный
Битрейт : 384 Кбит/сек
Каналы : 6 каналов
Расположение каналов : Front: L C R, Side: L R, LFE
Частота : 48,0 КГц
Битовая глубина : 16 бит
Метод сжатия : С потерями
Размер потока : 327 Мбайт (16%)
Выравнивание : Разделение по промежуткам
Продолжительность промежутка : 42 мс. (1,00 видеокадр)
Время предзагрузки промежутка : 500 мс.

Аудио #2
Идентификатор : 2
Формат : AC-3
Формат/Информация : Audio Coding 3
Расширение режима : CM (complete main)
Параметр Endianness формата : Big
Идентификатор кодека : 2000
Продолжительность : 1 ч. 59 м.
Вид битрейта : Постоянный
Битрейт : 448 Кбит/сек
Каналы : 6 каналов
Расположение каналов : Front: L C R, Side: L R, LFE
Частота : 48,0 КГц
Битовая глубина : 16 бит
Метод сжатия : С потерями
Размер потока : 381 Мбайт (18%)
Выравнивание : Разделение по промежуткам
Продолжительность промежутка : 42 мс. (1,00 видеокадр)
Время предзагрузки промежутка : 500 мс.



Скачать Миссия.«Серенити».Serenity.(Джосс.Уидон).[2005.фантастика.боевик.триллер.приключения.BDRip].[Dub.R5]+[DVO]+3x[AVO.(В.Горчаков.В.Королёв.Ю.Сербин)].torrent без регистрации
Золото ЗОЛОТАЯ РАЗДАЧА! СКАЧАННОЕ НЕ ЗАСЧИТЫВАЕТСЯ! Золото
Дата: Зарегистрирован   [ Тип: внутренний ] Как тут cкачать?
MAGNET ссылка
MAGNET ссылка


Скачать .torrent

18 KB

Статус: проверено DHT
Скачан: торрент - 108 раз, раздача полностью - 33 раз
Размер: 3,51 GB
Оценка:  - (Голосов: 0)
Поблагодарили: 0
Поделиться ссылкой на эту раздачу с друзьями:
В контактеFacebookОдноклассникиTwitterLivejournalМой МирLiveinternet
 

 
Показать сообщения:    


Вы не можете начинать темы
Вы не можете отвечать на сообщения
Вы не можете редактировать свои сообщения
Вы не можете удалять свои сообщения
Вы не можете голосовать в опросах
Вы не можете прикреплять файлы к сообщениям
Вы можете скачивать файлы