Loading...
Error

Скачать Кинг и Максвелл / King & Maxwell (01x01-08) ( Майкл Кэтлман) [2013, драма, HDTVRip] [Sub] торрент без регистрации

 
Статистика раздачи
Размер:  2,71 GB   |    Скачан:  151 раз
Сидов:  1  [  0 KB/s  ]  
 
Автор Сообщение

МихаНЕзатор

[] 


Кинг и Максвелл / King & Maxwell


Год выпуска: 2013

Страна: США
Жанр: драма
Продолжительность: ~42 мин.
Перевод: Субтитры (Podruga)
Русские субтитры: есть
Режиссёр: Майкл Кэтлман

В ролях: Джон Тенни, Ребекка Ромейн, Райан Херст, Майкл ОКиф, Крис Батлер, Аарон Перл, Синтия Аддай-Робинсон, Элизабет Марвел, Мария Рикосса, Рик Робертс и др.

Описание: Сериал рассказывает о Шоне Кинге и Мишель Максвелл, далеко не обычных частных сыщиках. Они оба бывшие секретные агенты, обладающие уникальными навыками, которые дают им преимущество как над подозреваемыми, так и над органами правопорядка.

Качество: HDTVRip
Формат: AVI
Видео кодек: XviD
Аудио кодек: MP3
Видео: 624x352 (16:9), 23.976 fps, ~1000 kbps, ~0.190 bit/pixel
Аудио: 48 kHz, 2 ch, ~128 kbps [Original]
Субтитры: русские


General
Complete name : D:DownloadsKing&MaxwellKing.and.Maxwell.S01E01.HDTV.XviD.avi
Format : AVI
Format/Info : Audio Video Interleave
File size : 349 MiB
Duration : 41mn 46s
Overall bit rate : 1 168 Kbps
Writing application : VirtualDubMod 1.5.10.2 (build 2540/release)
Writing library : VirtualDubMod build 2540/release

Video
ID : 0
Format : MPEG-4 Visual
Format profile : Advanced Simple@L5
Format settings, BVOP : 2
Format settings, QPel : No
Format settings, GMC : No warppoints
Format settings, Matrix : Default (H.263)
Muxing mode : Packed bitstream
Codec ID : XVID
Codec ID/Hint : XviD
Duration : 41mn 46s
Bit rate : 1 031 Kbps
Width : 624 pixels
Height : 352 pixels
Display aspect ratio : 16:9
Frame rate : 23.976 fps
Color space : YUV
Chroma subsampling : 4:2:0
Bit depth : 8 bits
Scan type : Progressive
Compression mode : Lossy
Bits/(Pixel*Frame) : 0.196
Stream size : 308 MiB (88%)
Writing library : XviD 1.2.1 (UTC 2008-12-04)

Audio
ID : 1
Format : MPEG Audio
Format version : Version 1
Format profile : Layer 3
Mode : Joint stereo
Mode extension : MS Stereo
Codec ID : 55
Codec ID/Hint : MP3
Duration : 41mn 46s
Bit rate mode : Constant
Bit rate : 128 Kbps
Channel(s) : 2 channels
Sampling rate : 48.0 KHz
Compression mode : Lossy
Stream size : 38.3 MiB (11%)
Alignment : Aligned on interleaves
Interleave, duration : 42 ms (1.00 video frame)
Interleave, preload duration : 504 ms

Внимание! Раздача ведётся путём добавления новых серий; при каждом добавлении создаётся новый торрент. Чтобы начать докачку новой серии, пользователям необходимо сделать следующее:
(1) остановить скачивание,
(2) удалить старый торрент у себя из клиента (старые серии удалять не надо),
(3) скачать новый торрент и запустить его у себя в клиенте вместо старого, при этом указать клиенту путь в старую папку куда и должно происходить скачивание новых серий.

Ваш клиент при этом должен произвести хеширование (проверку) старой папки (если не производит сам - помогите ему сделать это), и будет докачивать только те серии которых у вас ещё нет. Старые серии при этом не удаляются, а продолжают раздаваться!

Eсли вы уже удалили старые серии, то предотвратить повторную закачку старых серий можно, отжав галочку в соответствующих местах при запуске нового торрента. По возможности, желательно не удалять старые серии как можно дольше чтобы релизёр не столько продолжал раздавать старые серии, а смог сконцентрироваться на новых.



Скачать Кинг.и.Максвелл.King.&.Maxwell.(01x01-08).(.Майкл.Кэтлман).[2013.драма.HDTVRip].[Sub].torrent без регистрации
Золото ЗОЛОТАЯ РАЗДАЧА! СКАЧАННОЕ НЕ ЗАСЧИТЫВАЕТСЯ! Золото
Дата: Зарегистрирован   [ Тип: внутренний ] Как тут cкачать?
MAGNET ссылка
MAGNET ссылка


Скачать .torrent

15 KB

Статус: проверено DHT
Скачан: торрент - 151 раз, раздача полностью - 3 раз
Размер: 2,71 GB
Оценка:  - (Голосов: 0)
Поблагодарили: 0
Поделиться ссылкой на эту раздачу с друзьями:
В контактеFacebookОдноклассникиTwitterLivejournalМой МирLiveinternet
 

 
Показать сообщения:    


Вы не можете начинать темы
Вы не можете отвечать на сообщения
Вы не можете редактировать свои сообщения
Вы не можете удалять свои сообщения
Вы не можете голосовать в опросах
Вы не можете прикреплять файлы к сообщениям
Вы можете скачивать файлы