Loading...
Error

Скачать Кинг и Максвелл / King & Maxwell (01x01-06) ( Майкл Кэтлман) [2013, драма, HDTVRip] [720p] [VO] торрент без регистрации

 
Статистика раздачи
Размер:  7,55 GB   |    Скачан:  129 раз
Сидов:  1  [  0 KB/s  ]  
 
Автор Сообщение

МихаНЕзатор

[] 


Кинг и Максвелл / King & Maxwell


Год выпуска: 2013

Страна: США
Жанр: драма
Продолжительность: 00:46:51

Перевод: Любительский (одноголосый закадровый) Адам Шухарт / AdiSound
Автор перевода: Адам Шухарт (1, 3 серия), notabenoid (2 серия)

Режиссёр: Майкл Кэтлман, Пол А. Кауфман, Тони Уормби

В ролях: Джон Тенни, Ребекка Ромейн, Райан Херст, Майкл ОКиф, Крис Батлер, Аарон Перл, Синтия Аддай-Робинсон, Элизабет Марвел, Мария Рикосса, Рик Робертс

Описание: Сериал рассказывает о Шоне Кинге и Мишель Максвелл, далеко не обычных частных сыщиках. Они оба бывшие секретные агенты, обладающие навыками, которые дают им преимущество как над подозреваемыми, так и над органами правопорядка.



Качество: HDTVRip 720p
Формат: MKV
Видео кодек: AVC
Аудио кодек: AC-3
Видео: AVC, 1280х720, 23.976 fps, 3164 Kbps, 0.143 bit/pixel
Аудио: AC-3, 48 KHz, 2 ch, 192 Kbps
Субтитры: отсутствуют

General
Unique ID : 239296265399855010104651911513823650104 (0xB406C8C8A11FF300AE126856A0522138)
Complete name : G:King and Maxwell S01King and Maxwell s01e01_AdiSound_720p.mkv
Format : Matroska
Format version : Version 1
File size : 1.27 GiB
Duration : 46mn 51s
Overall bit rate : 3 874 Kbps
Encoded date : UTC 2013-07-11 15:57:56
Writing application : mkvmerge v2.3.0 ('Freak U') built on Sep 8 2008 18:32:16
Writing library : libebml v0.7.7 + libmatroska v0.8.1

Video
ID : 1
Format : AVC
Format/Info : Advanced Video Codec
Format profile : High@L4.1
Format settings, CABAC : Yes
Format settings, ReFrames : 5 frames
Codec ID : V_MPEG4/ISO/AVC
Duration : 46mn 51s
Bit rate : 3 157 Kbps
Width : 1 280 pixels
Height : 720 pixels
Display aspect ratio : 16:9
Frame rate mode : Constant
Frame rate : 23.976 fps
Color space : YUV
Chroma subsampling : 4:2:0
Bit depth : 8 bits
Scan type : Progressive
Bits/(Pixel*Frame) : 0.143
Stream size : 1.03 GiB (81%)
Writing library : x264 core 133 r2334 a3ac64b
Encoding settings : cabac=1 / ref=5 / deblock=1:0:0 / analyse=0x3:0x113 / me=umh / subme=8 / psy=1 / psy_rd=1.00:0.00 / mixed_ref=1 / me_range=16 / chroma_me=1 / trellis=1 / 8x8dct=1 / cqm=0 / deadzone=21,11 / fast_pskip=1 / chroma_qp_offset=-2 / threads=12 / lookahead_threads=2 / sliced_threads=0 / nr=0 / decimate=1 / interlaced=0 / bluray_compat=0 / constrained_intra=0 / bframes=3 / b_pyramid=2 / b_adapt=2 / b_bias=0 / direct=3 / weightb=1 / open_gop=0 / weightp=2 / keyint=250 / keyint_min=23 / scenecut=40 / intra_refresh=0 / rc_lookahead=50 / rc=crf / mbtree=1 / crf=18.0 / qcomp=0.60 / qpmin=0 / qpmax=69 / qpstep=4 / ip_ratio=1.40 / aq=1:1.00
Language : English
Default : Yes
Forced : No
Matrix coefficients : BT.709

Audio #1
ID : 2
Format : AC-3
Format/Info : Audio Coding 3
Mode extension : CM (complete main)
Format settings, Endianness : Big
Codec ID : A_AC3
Duration : 46mn 51s
Bit rate mode : Constant
Bit rate : 192 Kbps
Channel(s) : 2 channels
Channel positions : Front: L R
Sampling rate : 48.0 KHz
Bit depth : 16 bits
Compression mode : Lossy
Stream size : 64.3 MiB (5%)
Language : Russian
Default : No
Forced : No

Audio #2
ID : 3
Format : AC-3
Format/Info : Audio Coding 3
Mode extension : CM (complete main)
Format settings, Endianness : Big
Codec ID : A_AC3
Duration : 46mn 51s
Bit rate mode : Constant
Bit rate : 448 Kbps
Channel(s) : 6 channels
Channel positions : Front: L C R, Side: L R, LFE
Sampling rate : 48.0 KHz
Bit depth : 16 bits
Compression mode : Lossy
Stream size : 150 MiB (12%)
Language : English
Default : No
Forced : No

При каждом добавлении создаётся новый торрент. Чтобы начать докачку новой серии, необходимо сделать следующее:
1) остановить скачивание,
2) удалить старый торрент у себя из клиента (старые серии удалять не надо),
3) скачать новый торрент и запустить его у себя в клиенте вместо старого, при этом указать клиенту путь в старую папку куда и должно происходить скачивание новых серий.

Ваш клиент при этом должен произвести хеширование (проверку) старой папки (если не производит сам - помогите ему сделать это), и будет докачивать только те серии которых у вас ещё нет. Старые серии при этом не удаляются, а продолжают раздаваться!

Eсли вы уже удалили старые серии, то предотвратить повторную закачку старых серий можно, сняв галочку в соответствующих местах при запуске нового торрента.



Скачать Кинг.и.Максвелл.King.&.Maxwell.(01x01-06).(.Майкл.Кэтлман).[2013.драма.HDTVRip].[720p].[VO].torrent без регистрации
Золото ЗОЛОТАЯ РАЗДАЧА! СКАЧАННОЕ НЕ ЗАСЧИТЫВАЕТСЯ! Золото
Дата: Зарегистрирован   [ Тип: внутренний ] Как тут cкачать?
MAGNET ссылка
MAGNET ссылка


Скачать .torrent

20 KB

Статус: проверено DHT
Скачан: торрент - 129 раз, раздача полностью - 16 раз
Размер: 7,55 GB
Оценка:  - (Голосов: 0)
Поблагодарили: 1
Поделиться ссылкой на эту раздачу с друзьями:
В контактеFacebookОдноклассникиTwitterLivejournalМой МирLiveinternet
 

 
Показать сообщения:    


Вы не можете начинать темы
Вы не можете отвечать на сообщения
Вы не можете редактировать свои сообщения
Вы не можете удалять свои сообщения
Вы не можете голосовать в опросах
Вы не можете прикреплять файлы к сообщениям
Вы можете скачивать файлы