Loading...
Error

Скачать Перекресток Миллера / Miller's Crossing (Джоэл Коэн / Joel Coen, Итэн Коэн / Ethan Coen) [1990, триллер, драма, криминал, BDRip-AVC] [AVO] (Дмитрий Есарев) торрент без регистрации

 
Статистика раздачи
Размер:  2 GB   |    Скачан:  111 раз
Сидов:  1  [  0 KB/s  ]  
 
Автор Сообщение

leon030982

[] 

Перекресток Миллера / Miller's Crossing

Год выпуска: 1990
Выпущено: США
Продолжительность: 01:54:51
Жанр: триллер, драма, криминал
Перевод 1: Авторский (одноголосный, закадровый) [Дмитрий Есарев]
Перевод 2: Авторский (одноголосный, закадровый) [А.Гаврилов] - Скачать с Яндекс диск
Cубтитры: отсутствуют
Режиссер: Джоэл Коэн / Joel Coen, Итэн Коэн / Ethan Coen

В ролях: Гэбриел Бирн, Джон Туртурро, Альберт Финни, Марша Гэй Харден, Джон Полито, Дж. Э. Фримен, Майк Старр, Аль Манчини, Ричард Вуд, Томас Тонер

О фильме: Америка тридцатых годов. Время сухого закона. Преступные кланы в любой момент готовы развязать кровавую войну за контроль над поставками нелегального алкоголя. Том Рейган — умный и авторитетный преступник, бывший советник одного из мафиозных боссов. Он своего рода анти-герой, абсолютно аморальный эгоистичный и подлый человек.
Но, тем не менее, своими незаурядными способностями оставаться живым после самых крутых разборок, вызывает искренние симпатии. Он умело балансирует между двумя готовыми в любой момент сорваться бандами, пытаясь удержать их от начала войны. Но долго так продолжаться не может, и у Тома возникают такие проблемы, от решения которых будут зависеть судьбы слишком многих людей…




Качество: BDRip-AVC (источник: BDRemux / 1080р)
Формат: MKV
Видео кодек: h.264
Аудио кодек: AC3
Видео: MPEG4 Video (H264) 1024x554 23.976 fps 2 040 kbps
Аудио 1: 48 kHz, AC3 Dolby Digital, 3/2 (L,C,R,l,r) + LFE ch, ~448.00 kbps avg [Дмитрий Есарев]
Аудио 2: 48 kHz, AC3 Dolby Digital, 3/2 (L,C,R,l,r) + LFE ch, ~384.00 kbps avg [А.Гаврилов] - Скачать с Яндекс диск
Авторский перевод и озвучка Дмитрия Есарева. Заказ перевода mihey10. Работа со звуком и постер Perevodman.
BDRip-AVC от mihaildns.
E:\INTERNET\Перекресток Миллера.1990.BDRip-AVC.[AVO] (Дмитрий Есарев).mkv
General
Unique ID : 194104904884610449911594482187985293823 (0x92073EAF9A0F3EDD9B26C1AF5DA511FF)
Complete name : E:\INTERNET\Перекресток Миллера.1990.BDRip-AVC.[AVO] (Дмитрий Есарев).mkv
Format : Matroska
Format version : Version 2
File size : 2.00 GiB
Duration : 1h 54mn
Overall bit rate : 2 488 Kbps
Encoded date : UTC 2013-08-07 08:52:19
Writing application : mkvmerge v4.2.0 ('No Talking')
Writing library : libebml v1.0.0 + libmatroska v1.0.0
Video #1
ID : 1
Format : AVC
Format/Info : Advanced Video Codec
Format profile : High@L4.1
Format settings, CABAC : Yes
Format settings, ReFrames : 8 frames
Muxing mode : Header stripping
Codec ID : V_MPEG4/ISO/AVC
Duration : 1h 54mn
Bit rate : 2 040 Kbps
Width : 1 024 pixels
Height : 554 pixels
Display aspect ratio : 1.85:1
Frame rate mode : Constant
Frame rate : 23.976 fps
Color space : YUV
Chroma subsampling : 4:2:0
Bit depth : 8 bits
Scan type : Progressive
Bits/(Pixel*Frame) : 0.150
Stream size : 1.60 GiB (80%)
Writing library : x264 core 114 r1913 5fd3dce
Encoding settings : cabac=1 / ref=8 / deblock=1:-2:-2 / analyse=0x3:0x133 / me=umh / subme=10 / psy=1 / psy_rd=1.00:0.00 / mixed_ref=1 / me_range=48 / chroma_me=1 / trellis=2 / 8x8dct=1 / cqm=0 / deadzone=21,11 / fast_pskip=0 / chroma_qp_offset=-2 / threads=6 / sliced_threads=0 / nr=0 / decimate=1 / interlaced=0 / constrained_intra=0 / bframes=8 / b_pyramid=2 / b_adapt=2 / b_bias=0 / direct=3 / weightb=1 / open_gop=0 / weightp=2 / keyint=250 / keyint_min=23 / scenecut=40 / intra_refresh=0 / rc=2pass / mbtree=0 / bitrate=2040 / ratetol=1.0 / qcomp=0.60 / qpmin=10 / qpmax=51 / qpstep=4 / cplxblur=20.0 / qblur=0.5 / ip_ratio=1.40 / pb_ratio=1.30 / aq=2:1.00
Language : English
Default : No
Forced : No
Audio #2
ID : 2
Format : AC-3
Format/Info : Audio Coding 3
Mode extension : CM (complete main)
Format settings, Endianness : Big
Muxing mode : Header stripping
Codec ID : A_AC3
Duration : 1h 54mn
Bit rate mode : Constant
Bit rate : 448 Kbps
Channel(s) : 6 channels
Channel positions : Front: L C R, Side: L R, LFE
Sampling rate : 48.0 KHz
Bit depth : 16 bits
Compression mode : Lossy
Stream size : 368 MiB (18%)
Title : Åñàðåâ
Language : Russian
Default : Yes
Forced : No



Скачать Перекресток.Миллера.Miller's.Crossing.(Джоэл.Коэн.Joel.Coen.Итэн.Коэн.Ethan.Coen).[1990.триллер.драма.криминал.BDRip-AVC].[AVO].(Дмитрий.Есарев).torrent без регистрации
Золото ЗОЛОТАЯ РАЗДАЧА! СКАЧАННОЕ НЕ ЗАСЧИТЫВАЕТСЯ! Золото
Дата: Зарегистрирован   [ Тип: внутренний ] Как тут cкачать?
MAGNET ссылка
MAGNET ссылка


Скачать .torrent

21 KB

Статус: проверено DHT
Скачан: торрент - 111 раз, раздача полностью - 9 раз
Размер: 2 GB
Оценка:  - (Голосов: 0)
Поблагодарили: 3
Поделиться ссылкой на эту раздачу с друзьями:
В контактеFacebookОдноклассникиTwitterLivejournalМой МирLiveinternet
 

 
Показать сообщения:    


Вы не можете начинать темы
Вы не можете отвечать на сообщения
Вы не можете редактировать свои сообщения
Вы не можете удалять свои сообщения
Вы не можете голосовать в опросах
Вы не можете прикреплять файлы к сообщениям
Вы можете скачивать файлы